<?xml version="1.0" standalone="no"?> 
<!DOCTYPE svg PUBLIC "-//W3C//DTD SVG 1.1//EN" "http://www.w3.org/Graphics/SVG/1.1/DTD/svg11.dtd" >
<svg xmlns="http://www.w3.org/2000/svg">
<defs>
  <font id="nucleo-icons" horiz-adv-x="256">
    <font-face font-family="nucleo-icons"
      units-per-em="256" ascent="256"
      descent="0" />
    <missing-glyph horiz-adv-x="0" />
    <glyph glyph-name="air-baloon"
      unicode="&#xEA01;"
      horiz-adv-x="256" d=" M121.539 246.946C95.316 242.868 71.318 226.075 58.605 202.904C47.979 183.538 45.668 163.918 51.573 143.203C56.644 125.413 75.393 92.196 91.904 71.75L98.162 64L132 64L165.838 64L172.096 71.75C188.562 92.14 207.113 124.981 212.625 143.5C216.435 156.297 216.431 172.578 212.615 185.307C206.744 204.895 195.672 220.284 178.773 232.343C162.527 243.935 139.674 249.766 121.539 246.946M109.009 232.25C84.326 204.699 80.588 155.504 98.058 88.107C100.252 79.641 101.899 72.566 101.718 72.384C101.215 71.881 87.007 91.286 80.033 102C72.233 113.983 61.828 135.21 58.957 145C56.209 154.365 55.382 166.628 56.906 175.379C61.403 201.207 80.502 224.524 105.5 234.707C109.9 236.5 113.648 237.974 113.83 237.983C114.011 237.992 111.842 235.413 109.009 232.25M168.826 229.71C185.829 219.463 198.623 203.583 204.622 185.28C207.155 177.552 207.497 175.063 207.473 164.5C207.452 154.868 206.993 151.02 205.145 145C199.933 128.018 182.634 97.68 166.941 78C161.063 70.628 161.091 70.042 166.36 90C183.519 154.999 179.43 204.762 154.641 232.607L149.782 238.065L156.641 235.492C160.414 234.077 165.897 231.475 168.826 229.71M128 154.5L128 72L119.215 72L110.43 72L106.749 85.25C94.617 128.922 91.76 167.938 98.642 196C100.81 204.842 106.163 216.229 111.269 222.859C115.131 227.872 125.444 236.998 127.25 236.999C127.662 237 128 199.875 128 154.5M142.152 233.388C153.876 224.782 162.113 210.499 166.595 191C169.005 180.519 169.509 153.864 167.607 137.523C165.633 120.566 161.013 97.559 156.691 83.155L153.493 72.5L144.746 72.211L136 71.922L136 154.461C136 199.857 136.277 237 136.616 237C136.955 237 139.446 235.375 142.152 233.388M104 20L104 0L132 0L160 0L160 20L160 40L132 40L104 40L104 20M152 20L152 8L132 8L112 8L112 20L112 32L132 32L152 32L152 20" />
    <glyph glyph-name="album-2"
      unicode="&#xEA02;"
      horiz-adv-x="256" d=" M72 236L72 224L40 224L8 224L8 112L8 0L132 0L256 0L256 112L256 224L224 224L192 224L192 236L192 248L188 248L184 248L184 236L184 224L160 224L136 224L136 236L136 248L132 248L128 248L128 236L128 224L104 224L80 224L80 236L80 248L76 248L72 248L72 236M72 208L72 200L76 200L80 200L80 208L80 216L104 216L128 216L128 208L128 200L132 200L136 200L136 208L136 216L160 216L184 216L184 208L184 200L188 200L192 200L192 208L192 216L220 216L248 216L248 112L248 8L132 8L16 8L16 112L16 216L44 216L72 216L72 208M99.205 174.165C91.987 171.591 87.026 167.335 83.745 160.902C80.054 153.666 79.36 147.712 81.394 140.718C85.721 125.833 100.858 117.201 115.282 121.394C130.167 125.721 138.799 140.858 134.606 155.282C130.13 170.682 113.824 179.38 99.205 174.165M115.768 166.452C126.182 162.101 130.884 149.845 126.11 139.5C120.488 127.32 104.093 124.14 94.132 133.298C86.538 140.279 86.135 154.077 93.298 161.868C98.456 167.479 108.437 169.516 115.768 166.452M148.367 102.142C135.24 86.729 124.05 74.093 123.5 74.063C122.95 74.032 113.864 80.98 103.309 89.503C92.754 98.027 83.754 104.998 83.309 104.996C82.864 104.994 72.341 88.682 59.925 68.746L37.35 32.5L131.337 32.245C183.029 32.105 225.504 32.17 225.725 32.391C226.149 32.816 174.502 127.898 173.069 129.331C172.61 129.79 161.494 117.555 148.367 102.142M193.404 76.586C204.185 56.833 212.852 40.518 212.664 40.33C212.475 40.142 176.096 40.103 131.821 40.244L51.32 40.5L67.91 67.209C77.034 81.9 84.743 93.937 85.04 93.959C85.337 93.982 94.272 86.97 104.895 78.378L124.21 62.756L126.463 65.128C127.702 66.433 138.297 78.7 150.008 92.388C170.599 116.456 171.341 117.197 172.551 114.888C173.239 113.575 182.623 96.339 193.404 76.586" />
    <glyph glyph-name="alien-33"
      unicode="&#xEA03;"
      horiz-adv-x="256" d=" M128 236.107C128 223.047 127.977 223 121.578 223C116.194 223 102.957 219.225 95.472 215.556C75.66 205.843 58.857 186.815 52.557 166.959C49.158 156.246 48 146.232 48 127.558L48 111.26L43.644 110.769C32.612 109.526 18.48 98.852 13.045 87.659C10.353 82.113 8.028 72.232 8.008 66.25L8 64L132 64L256 64L255.992 66.25C255.972 72.232 253.647 82.113 250.955 87.659C245.52 98.852 231.388 109.526 220.356 110.769L216 111.26L216 127.558C216 146.232 214.842 156.246 211.443 166.959C205.143 186.815 188.34 205.843 168.528 215.556C161.043 219.225 147.806 223 142.422 223C136.023 223 136 223.047 136 236.107L136 248L132 248L128 248L128 236.107M154.631 212.788C174.96 206.74 193.98 189.369 202.473 169.095C206.71 158.98 208 149.834 208 129.912L208 112L132 112L56 112L56 129.912C56 156.117 58.644 167.175 68.431 181.896C76.698 194.331 92.758 207.313 105.062 211.505C120.326 216.706 139.771 217.21 154.631 212.788M124.5 174.104C117.27 170.757 111.974 162.98 112.022 155.782C112.087 146.113 122.3 136 132 136C141.817 136 151.956 146.162 151.956 156C151.956 163.312 146.224 171.338 138.782 174.447C133.9 176.486 129.413 176.379 124.5 174.104M137.96 166.364C145.888 161.682 145.888 150.318 137.96 145.636C130.141 141.017 119.939 147.004 120.035 156.154C120.132 165.242 130.176 170.963 137.96 166.364M221.856 102.551C233.995 99.32 245.02 87.584 247.504 75.25L248.159 72L132 72L15.841 72L16.496 75.25C18.927 87.321 29.981 99.281 41.678 102.496C49.066 104.526 214.244 104.577 221.856 102.551M72.558 25.906C64.5 13.707 62.89 10.673 64.058 9.894C66.92 7.986 69.177 6.844 69.443 7.169C70.715 8.717 88.208 35.379 88.57 36.321C88.942 37.292 84.302 41.068 82.846 40.979C82.656 40.967 78.026 34.185 72.558 25.906M177.735 39.233C176.215 38.29 175.18 36.974 175.436 36.307C175.794 35.375 193.295 8.704 194.557 7.169C194.823 6.844 197.08 7.986 199.942 9.894C201.11 10.673 199.5 13.707 191.442 25.906C185.974 34.185 181.275 40.955 181 40.952C180.725 40.949 179.256 40.176 177.735 39.233M128 16L128 0L132 0L136 0L136 16L136 32L132 32L128 32L128 16" />
    <glyph glyph-name="align-center"
      unicode="&#xEA04;"
      horiz-adv-x="256" d=" M8 220L8 216L132 216L256 216L256 220L256 224L132 224L8 224L8 220M64 172L64 168L132 168L200 168L200 172L200 176L132 176L64 176L64 172M8 124L8 120L132 120L256 120L256 124L256 128L132 128L8 128L8 124M64 76L64 72L132 72L200 72L200 76L200 80L132 80L64 80L64 76M8 28L8 24L132 24L256 24L256 28L256 32L132 32L8 32L8 28" />
    <glyph glyph-name="align-left-2"
      unicode="&#xEA05;"
      horiz-adv-x="256" d=" M8 220L8 216L132 216L256 216L256 220L256 224L132 224L8 224L8 220M8 172L8 168L76 168L144 168L144 172L144 176L76 176L8 176L8 172M8 124L8 120L132 120L256 120L256 124L256 128L132 128L8 128L8 124M8 76L8 72L76 72L144 72L144 76L144 80L76 80L8 80L8 76M8 28L8 24L132 24L256 24L256 28L256 32L132 32L8 32L8 28" />
    <glyph glyph-name="ambulance"
      unicode="&#xEA06;"
      horiz-adv-x="256" d=" M8 136L8 64L27.86 64L47.72 64L48.31 58.289C49.558 46.197 57.343 36.701 68.718 33.394C75.562 31.404 81.509 32.049 88.704 35.562C97.29 39.753 102.621 47.923 103.72 58.575L104.28 64L140.431 64L176.582 64L176.565 56.75C176.541 46.258 180.767 39.227 190 34.398C194.75 31.913 205.25 31.913 210 34.398C219.233 39.227 223.459 46.258 223.435 56.75L223.418 64L239.709 64L256 64L256 91.417L256 118.833L244.25 122.749L232.5 126.665L232.23 147.333L231.959 168L195.98 168L160 168L160 188L160 208L84 208L8 208L8 136M152 136L152 72L126.748 72L101.496 72L97.998 76.72C87.35 91.088 64.65 91.088 54.002 76.72L50.504 72L33.252 72L16 72L16 136L16 200L84 200L152 200L152 136M80 156L80 144L68 144L56 144L56 140L56 136L68 136L80 136L80 124L80 112L84 112L88 112L88 124L88 136L100 136L112 136L112 140L112 144L100 144L88 144L88 156L88 168L84 168L80 168L80 156M224 140.583L224 121.167L235.75 117.251L247.5 113.335L247.77 92.667L248.041 72L232.643 72C219.858 72 217.023 72.267 215.939 73.573C209.524 81.303 190.476 81.303 184.061 73.573C183.013 72.311 180.506 72 171.378 72L160 72L160 116L160 160L192 160L224 160L224 140.583M184 132L184 120L196 120L208 120L208 124L208 128L200 128L192 128L192 136L192 144L188 144L184 144L184 132M83.768 78.452C94.182 74.101 98.884 61.845 94.11 51.5C87.031 36.162 64.969 36.162 57.89 51.5C54.567 58.7 56 68.105 61.298 73.868C66.456 79.479 76.437 81.516 83.768 78.452M206.329 70.636C216.603 66.343 219.108 52.873 211.118 44.882C204.631 38.396 195.369 38.396 188.882 44.882C176.516 57.249 190.161 77.391 206.329 70.636" />
    <glyph glyph-name="android"
      unicode="&#xEA07;"
      horiz-adv-x="256" d=" M83.727 243.745L80.954 241.5L87.477 231.772C91.065 226.422 94 221.833 94 221.574C94 221.316 90.017 217.143 85.149 212.302C75.541 202.747 70.718 195.153 66.858 183.5C64.544 176.516 64.538 176.356 64.222 112.25L63.905 48L79.952 48L96 48L96 28L96 8L100 8L104 8L104 28L104 48L132 48L160 48L160 28L160 8L164 8L168 8L168 28L168 48L184.048 48L200.095 48L199.778 112.25C199.462 176.356 199.456 176.516 197.142 183.5C193.282 195.153 188.459 202.747 178.851 212.302C173.983 217.143 170 221.316 170 221.574C170 221.833 172.935 226.422 176.523 231.772L183.046 241.5L180.273 243.745C178.748 244.98 177.275 245.984 177 245.977C176.725 245.97 173.389 241.228 169.587 235.438C164.351 227.466 162.288 225.071 161.087 225.57C141.122 233.861 122.878 233.861 102.913 225.57C101.712 225.071 99.649 227.466 94.413 235.438C90.611 241.228 87.275 245.97 87 245.977C86.725 245.984 85.252 244.98 83.727 243.745M152.5 220.578C173.411 212.648 188.266 194.417 191.525 172.681L192.227 168L132 168L71.773 168L72.475 172.681C75.606 193.559 89.894 211.815 109.265 219.686C118.216 223.323 122.278 223.949 134.5 223.572C143.427 223.296 146.819 222.732 152.5 220.578M32 128L32 96L36 96L40 96L40 128L40 160L36 160L32 160L32 128M192 108L192 56L132 56L72 56L72 108L72 160L132 160L192 160L192 108M224 128L224 96L228 96L232 96L232 128L232 160L228 160L224 160L224 128" />
    <glyph glyph-name="app"
      unicode="&#xEA08;"
      horiz-adv-x="256" d=" M75.5 223.954C45.25 215.241 19.488 207.854 18.25 207.537L16 206.962L16 128.202L16 49.442L73.987 28.685L131.975 7.928L189.987 28.633L248 49.338L248 128.102C248 202.249 247.897 206.896 246.25 207.388C231.506 211.789 131.831 239.972 131.271 239.898C130.847 239.842 105.75 232.667 75.5 223.954M180.72 218.25C207.267 210.687 228.987 204.275 228.987 204C228.987 203.725 207.165 197.283 180.494 189.685L132 175.871L83.506 189.685C56.835 197.283 35.012 203.725 35.012 204C35.012 204.465 129.323 231.769 131.477 231.928C132.014 231.968 154.174 225.812 180.72 218.25M78 183.466L127.5 169.256L127.756 93.554C127.979 27.864 127.821 17.894 126.563 18.175C125.766 18.354 102.371 26.6 74.573 36.5L24.032 54.5L24.016 126.817L24 199.135L26.25 198.406C27.488 198.005 50.775 191.282 78 183.466M239.984 126.75L239.968 54.5L189.427 36.5C161.629 26.6 138.234 18.354 137.437 18.175C136.179 17.894 136.021 27.864 136.244 93.552L136.5 169.253L187.5 184.01C215.55 192.126 238.838 198.819 239.25 198.883C239.662 198.947 239.993 166.487 239.984 126.75" />
    <glyph glyph-name="apple"
      unicode="&#xEA09;"
      horiz-adv-x="256" d=" M172.156 246.537C146.618 240.358 125.994 213.77 128.495 190.25L129.159 184L133.369 184C157.476 184 181.751 207.924 183.723 233.624C184.024 237.543 183.964 242.38 183.59 244.374C182.809 248.536 181.467 248.79 172.156 246.537M174.55 225.526C172.364 218.004 163.891 205.737 157.602 200.989C151.746 196.568 145.295 193.488 139.75 192.468L136 191.777L136 195.283C136 201.023 139.685 211.218 144.177 217.908C150.582 227.447 159.271 234.125 170.388 238.052L175.5 239.858L175.807 235.38C175.976 232.917 175.41 228.483 174.55 225.526M82.317 174.497C64.673 170.662 48.317 157.539 39.942 140.5C33.867 128.14 32.568 121.827 32.632 105C32.694 89.005 34.762 77.219 40.052 62.706C46.346 45.438 58.854 25.34 70.736 13.404C83.819 0.261 96.947 -2.696 113.5 3.771C125.281 8.374 130.068 9.304 139.272 8.779C145.741 8.409 149.531 7.497 157 4.509C170.077 -0.722 177.731 -0.884 187.383 3.868C200.193 10.174 214.471 27.418 226.549 51.17C230.185 58.322 233.012 64.272 232.83 64.394C232.649 64.515 229.35 66.135 225.5 67.993C208.636 76.131 198.589 93.982 200.337 112.701C201.505 125.214 209.362 137.419 221 144.803C224.025 146.722 226.676 148.44 226.89 148.62C227.534 149.16 220.045 157.199 214.595 161.817C204.884 170.046 189.63 176.022 178.436 175.983C172.024 175.96 162.783 173.94 151.166 170.023C138.841 165.866 132.577 165.862 119.66 170C100.808 176.039 93.473 176.922 82.317 174.497M115 163.386C124.813 160.183 127.82 159.631 135.5 159.624C143.233 159.618 146.119 160.149 156 163.399C177.293 170.404 189.94 169.279 205.285 159.015C216.305 151.645 216.208 151.956 209.435 145.772C195.759 133.284 189.711 115.463 193.338 98.343C196.361 84.073 204.141 72.317 215.511 64.842C219.08 62.496 222 60.206 222 59.755C222 58.502 217.383 49.664 212.826 42.192C202.49 25.249 189.536 11.982 180.375 8.959C175.131 7.228 168.812 8.196 157.5 12.464C141.141 18.636 128.441 18.351 111.786 11.436C108.329 10 102.775 8.585 99.444 8.292C91.176 7.562 83.912 11 75.341 19.699C59.183 36.097 45.748 62.888 41.615 86.953C38.314 106.169 40.05 123.438 46.638 136.902C53.149 150.211 69.145 163.567 82.628 166.953C90.067 168.822 102.567 167.444 115 163.386" />
    <glyph glyph-name="atom"
      unicode="&#xEA0A;"
      horiz-adv-x="256" d=" M124.158 246.307C114.431 242.868 103.686 227.689 96.878 207.771C94.815 201.733 92.906 196.573 92.637 196.304C92.368 196.035 89.752 196.502 86.824 197.342C62.42 204.339 39.402 203.276 31.336 194.779C25.159 188.271 23.233 181.599 24.912 172.519C26.974 161.366 35.618 146.677 48.995 131.594L56.007 123.689L50.679 118.094C33.558 100.12 22.532 78.579 24.418 66.788C26.522 53.631 35.693 47.056 53.121 46.211C62.853 45.74 75.447 47.41 85.769 50.543C88.371 51.332 91.025 51.983 91.668 51.989C92.31 51.995 94.281 47.659 96.049 42.354C97.816 37.048 101.001 29.286 103.125 25.104C110.762 10.068 117.772 3.09 127.402 0.934C140.321 -1.957 151.467 6.117 160.797 25.124C163.598 30.831 167.077 39.385 168.527 44.134L171.163 52.767L177.332 50.899C196.23 45.175 215.484 44.4 225.794 48.948C247.153 58.372 243.242 83.606 215.504 115.333L207.98 123.939L214.935 131.568C222.781 140.175 232.062 153.631 235.472 161.342C243.717 179.985 239.213 194.594 223.56 199.979C213.758 203.352 197.126 202.456 178.122 197.532C174.633 196.628 171.56 196.107 171.293 196.374C171.025 196.641 169.252 201.495 167.351 207.159C160.131 228.681 149.608 243.257 139.024 246.4C132.518 248.332 129.839 248.315 124.158 246.307M140.594 236.75C143.482 234.803 147.133 230.922 149.702 227.069C153.68 221.103 160.503 205.36 162.799 196.848L163.785 193.196L154.642 189.444C149.614 187.381 142.5 184.2 138.833 182.376L132.167 179.059L122.333 183.662C116.925 186.193 109.8 189.291 106.5 190.545C101.852 192.312 100.568 193.24 100.803 194.663C101.504 198.919 105.52 210.053 109.041 217.5C113.587 227.119 118.288 233.275 124.033 237.133C129.865 241.05 134.371 240.946 140.594 236.75M64.026 193.946C75.676 192.496 90.273 188.675 101.815 184.055C113.006 179.576 122.018 175.46 122.302 174.698C122.411 174.407 115.921 169.921 107.879 164.728C91.775 154.328 80.33 145.884 69.163 136.163L61.827 129.776L58.298 133.138C51.872 139.261 41.06 154.075 36.92 162.429C31.582 173.201 30.683 180.853 34.157 185.946C37.111 190.278 41.604 192.932 47.729 193.962C54.543 195.108 54.682 195.108 64.026 193.946M222.948 191.665C228.561 188.933 231.079 185.48 231.741 179.606C233.331 165.498 215.135 139.324 187 115.246L179.5 108.827L178.876 133.164C178.309 155.298 176.161 175.966 173.418 185.682C172.873 187.613 173.416 188.046 178.15 189.452C197.268 195.129 214.119 195.962 222.948 191.665M167.382 176.25C168.256 171.437 169.513 163 170.175 157.5C171.729 144.587 171.72 102.263 170.161 90C168.23 74.819 165.875 63 164.779 63C162.458 63 141.655 72.456 130.654 78.512C110.869 89.403 88.22 105.154 73.78 118.065L67.06 124.073L72.28 128.797C89.685 144.549 113.827 160.792 138.619 173.432C148.7 178.571 162.863 184.83 164.646 184.934C165.313 184.972 166.456 181.344 167.382 176.25M124.5 142.104C117.27 138.757 111.974 130.98 112.022 123.782C112.087 114.113 122.3 104 132 104C141.817 104 151.956 114.162 151.956 124C151.956 131.312 146.224 139.338 138.782 142.447C133.9 144.486 129.413 144.379 124.5 142.104M137.96 134.364C145.888 129.682 145.888 118.318 137.96 113.636C130.141 109.017 119.939 115.004 120.035 124.154C120.132 133.242 130.176 138.963 137.96 134.364M65.076 115.405C66.409 113.978 71.598 109.475 76.607 105.399L85.714 97.987L86.381 89.988C86.976 82.85 89.16 68.188 90.501 62.33C90.926 60.473 90.314 59.946 86.249 58.674C67.094 52.681 47.947 51.938 39.503 56.861C37.855 57.822 35.449 60.159 34.157 62.054C28.031 71.036 36.143 89.883 56 112.805C58.475 115.661 60.984 117.999 61.576 118C62.167 118 63.742 116.832 65.076 115.405M211.18 108.462C223.979 93.649 231.893 78.776 231.967 69.398C232.006 64.501 228.945 59.456 224.283 56.733C216.853 52.394 201.19 52.625 182.408 57.351C174.873 59.246 173.522 59.893 173.642 61.546C173.72 62.621 174.728 69.35 175.882 76.5C177.035 83.65 177.984 91.377 177.989 93.67C178 97.741 178.245 98.042 188.262 106.28C193.905 110.922 199.148 115.473 199.912 116.393C200.675 117.314 201.795 117.906 202.4 117.709C203.005 117.513 206.956 113.351 211.18 108.462M108.5 82.922C125.687 72.097 149.484 60.026 162.185 55.688C163.624 55.197 163.72 54.556 162.842 51.306C160.151 41.34 153.475 26.487 148.678 19.79C135.926 1.988 123.308 4.222 110.965 26.464C104.079 38.873 96.61 65.697 94.398 85.966L93.693 92.431L96.596 90.511C98.193 89.454 103.55 86.039 108.5 82.922" />
    <glyph glyph-name="attach-87"
      unicode="&#xEA0B;"
      horiz-adv-x="256" d=" M153.423 226.69C150.081 225.418 145.806 223.416 143.923 222.242C142.04 221.067 119.297 198.82 93.382 172.803C41.859 121.079 41.283 120.381 36.925 104.5C33.897 93.464 33.897 78.536 36.925 67.5C40.154 55.734 44.978 47.809 54.899 37.974C68.523 24.469 82.43 18.811 102 18.811C113.632 18.811 123.105 20.921 133 25.715C140.078 29.144 143.061 31.899 186 74.648L231.5 119.948L228.756 122.695L226.013 125.442L181.256 80.857C139.108 38.87 136.063 36.059 129 32.623C111.279 24.001 92.684 24.005 75 32.634C64.945 37.54 52.944 49.51 48.166 59.401C40.109 76.079 40.106 94.478 48.158 112.354C51.227 119.169 53.557 121.693 98.438 166.832C149.346 218.032 150.366 218.888 162.827 220.895C179.917 223.647 197.738 214.78 205.321 199.752C210.421 189.644 210.467 175.075 205.433 164.065C203.279 159.354 196.487 152.073 161.194 116.639C133.346 88.68 118.172 74.158 115.5 72.911C108.172 69.49 101.092 70.672 95.128 76.311C88.429 82.646 86.3 91.747 89.776 99.192C90.795 101.374 107.421 119.094 130.414 142.505L169.328 182.126L166.721 184.733C164.452 187.002 163.9 187.162 162.455 185.963C161.542 185.205 143.611 167.016 122.608 145.543C98.73 121.13 83.707 105.001 82.514 102.5C79.685 96.569 79.853 85.829 82.865 79.983C85.536 74.798 90.123 69.722 94.704 66.881C101.33 62.772 114.353 62.812 121.179 66.963C122.849 67.978 143.006 87.531 165.973 110.414C210.321 154.599 211.741 156.29 215.538 169.44C217.797 177.265 217.134 191.203 214.133 198.977C209.418 211.194 199.303 221.398 187.243 226.101C182.837 227.82 178.939 228.418 170.5 228.672C160.926 228.959 158.712 228.702 153.423 226.69" />
    <glyph glyph-name="audio-92"
      unicode="&#xEA0C;"
      horiz-adv-x="256" d=" M119 246.44C96.744 241.643 78.129 222.68 73.412 200C71.085 188.811 71.842 131.01 74.42 123C79.338 107.724 91.546 93.207 105 86.636C129.046 74.894 155.571 79.224 174 97.899C181.959 105.964 186.625 113.592 189.661 123.5C191.295 128.83 191.5 133.351 191.5 164C191.5 194.649 191.295 199.17 189.661 204.5C186.595 214.506 181.983 222.034 173.988 230.083C159.191 244.979 139.457 250.849 119 246.44M146.081 238.167C158.465 234.934 171.013 224.91 178.008 212.663C181.378 206.763 184 196.429 184 189.053L184 184L170 184L156 184L156 180L156 176L170 176L184 176L184 160L184 144L170 144L156 144L156 140L156 136L170.111 136L184.223 136L183.563 132.25C181.28 119.261 176.036 109.759 166.423 101.187C146.614 83.524 117.335 83.519 97.577 101.176C87.956 109.773 82.719 119.267 80.437 132.25L79.777 136L93.889 136L108 136L108 140L108 144L94 144L80 144L80 160L80 176L94 176L108 176L108 180L108 184L94 184L80 184L80 189.772C80 211.246 96.794 232.643 118 238.186C126.322 240.361 137.705 240.353 146.081 238.167M40.375 135.234C43.06 99.664 62.708 71.093 94.625 56.347C102.226 52.835 116.286 49.019 121.668 49.007C128.23 48.992 128 49.76 128 27.893L128 8L96 8L64 8L64 4L64 0L132 0L200 0L200 4L200 8L168 8L136 8L136 27.893C136 49.76 135.77 48.992 142.332 49.007C147.779 49.019 161.811 52.852 169.626 56.463C201.227 71.063 220.953 99.839 223.625 135.234L224.287 144L220.289 144L216.291 144L215.704 134.25C214.427 113.022 206.837 96.599 190.712 80.171C180.145 69.406 166.632 61.632 152 57.902C144.614 56.019 119.386 56.019 112 57.902C92.09 62.978 73.595 76.239 61.517 94.097C53.451 106.024 48 123.511 48 137.458L48 144L43.857 144L39.713 144L40.375 135.234" />
    <glyph glyph-name="backpack"
      unicode="&#xEA0D;"
      horiz-adv-x="256" d=" M125.27 246.987C115.139 244.889 106.232 238.665 101.29 230.231C98.526 225.515 96.041 216.595 96.016 211.295C96.001 208.363 95.681 208.043 92.25 207.526C75.946 205.072 63.834 199.01 52.412 187.588C43.607 178.782 38.595 170.768 34.85 159.5L32.523 152.5L32.221 76.25L31.918 0L132 0L232.082 0L231.779 76.25L231.477 152.5L229.15 159.5C225.405 170.768 220.393 178.782 211.588 187.588C200.166 199.01 188.054 205.072 171.75 207.526C168.319 208.043 167.999 208.363 167.984 211.295C167.958 216.621 165.469 225.524 162.671 230.299C155.481 242.568 139.137 249.86 125.27 246.987M144.628 237.2C153.323 232.743 160 221.936 160 212.322L160 208L132 208L104 208L104 212.322C104 223.965 112.496 235.355 123.994 239.125C128.451 240.587 140.151 239.495 144.628 237.2M96 188L96 176L100 176L104 176L104 188L104 200L132 200L160 200L160 188L160 176L164 176L168 176L168 188.114L168 200.227L172.75 199.537C180.297 198.44 190.93 194.381 196.746 190.375C204.527 185.016 214.085 174.224 217.802 166.6C223.54 154.832 223.969 151.123 223.985 113.095L224 78.69L220.159 84.595C208.551 102.439 192.014 113.884 171.812 118.052C163.817 119.702 158.187 119.974 132 119.974C105.813 119.974 100.183 119.702 92.188 118.052C71.986 113.884 55.449 102.439 43.841 84.595L40 78.69L40.015 113.095C40.031 151.151 40.488 155.095 46.26 166.947C50.744 176.157 64.103 189.516 73.138 193.828C79.601 196.912 89.204 199.748 93.75 199.917C95.963 199.999 96 199.802 96 188M171.142 110.47C190.45 106.409 208.426 92.088 217.548 73.5C222.888 62.621 224 55.109 224 29.935L224 8L132 8L40 8L40.017 30.25C40.038 56.35 41.049 62.726 47.064 74.679C55.978 92.392 73.665 106.345 92.428 110.466C101.736 112.51 161.429 112.513 171.142 110.47M104 60L104 40L132 40L160 40L160 60L160 80L132 80L104 80L104 60M152 60L152 48L132 48L112 48L112 60L112 72L132 72L152 72L152 60" />
    <glyph glyph-name="badge"
      unicode="&#xEA0E;"
      horiz-adv-x="256" d=" M123.148 246.146C116.209 243.673 113.211 241.404 109.336 235.694C105.072 229.41 104 223.537 104 206.451L104 192L56 192L8 192L8 96L8 0L132 0L256 0L256 96L256 192L208.099 192L160.198 192L159.822 209.25C159.498 224.08 159.154 227.139 157.367 231.051C151.263 244.417 136.529 250.916 123.148 246.146M139.768 238.452C144.71 236.388 147.876 233.341 150.11 228.5C151.765 224.914 151.958 221.575 151.978 196.25L152 168L132 168L112 168L112 196.032C112 226.026 112.343 228.479 117.298 233.868C122.456 239.479 132.437 241.516 139.768 238.452M104 172L104 160L132 160L160 160L160 172L160 184L204 184L248 184L248 96L248 8L132 8L16 8L16 96L16 184L60 184L104 184L104 172M84.5 134.104C77.27 130.757 71.974 122.98 72.022 115.782C72.087 106.113 82.3 96 92 96C101.817 96 111.956 106.162 111.956 116C111.956 123.312 106.224 131.338 98.782 134.447C93.9 136.486 89.413 136.379 84.5 134.104M97.96 126.364C105.888 121.682 105.888 110.318 97.96 105.636C90.141 101.017 79.939 107.004 80.035 116.154C80.132 125.242 90.176 130.963 97.96 126.364M160 108L160 104L192 104L224 104L224 108L224 112L192 112L160 112L160 108M77.27 79.008C67.081 76.848 58.224 70.652 53.29 62.231C50.517 57.5 48.041 48.59 48.016 43.25L48 40L92 40L136 40L135.984 43.25C135.936 53.325 130.984 64.203 123.413 70.868C116.087 77.316 109.804 79.211 94.5 79.586C87.35 79.761 79.596 79.501 77.27 79.008M112.568 69.306C119.418 65.668 124.872 58.682 127.448 50.25L128.135 48L92.067 48C72.23 48 56 48.208 56 48.462C56 48.717 56.896 51.319 57.99 54.245C59.21 57.505 61.63 61.153 64.24 63.666C72.114 71.245 74.763 71.972 93.5 71.691C106.689 71.494 108.991 71.205 112.568 69.306M160 68L160 64L192 64L224 64L224 68L224 72L192 72L160 72L160 68" />
    <glyph glyph-name="bag"
      unicode="&#xEA0F;"
      horiz-adv-x="256" d=" M88 212L88 192L48 192L8 192L8 104L8 16L132 16L256 16L256 104L256 192L216 192L176 192L176 212L176 232L132 232L88 232L88 212M168 208L168 192L132 192L96 192L96 208L96 224L132 224L168 224L168 208M56 104L56 24L36 24L16 24L16 104L16 184L36 184L56 184L56 104M200 104L200 24L132 24L64 24L64 104L64 184L132 184L200 184L200 104M248 104L248 24L228 24L208 24L208 104L208 184L228 184L248 184L248 104" />
    <glyph glyph-name="bank"
      unicode="&#xEA10;"
      horiz-adv-x="256" d=" M69.276 215.161L8.053 182.5L8.026 163.25L8 144L132 144L256 144L255.975 163.25L255.95 182.5L194.762 215C161.109 232.875 132.883 247.572 132.037 247.661C131.192 247.749 102.949 233.124 69.276 215.161M190.623 208.404L248 177.808L248 164.904L248 152L132 152L16 152L16 164.903L16 177.807L73.25 208.374C104.737 225.187 131.118 238.955 131.873 238.971C132.628 238.987 159.065 225.232 190.623 208.404M124.5 206.104C117.27 202.757 111.974 194.98 112.022 187.782C112.087 178.113 122.3 168 132 168C141.817 168 151.956 178.162 151.956 188C151.956 195.312 146.224 203.338 138.782 206.447C133.9 208.486 129.413 208.379 124.5 206.104M137.96 198.364C145.888 193.682 145.888 182.318 137.96 177.636C130.141 173.017 119.939 179.004 120.035 188.154C120.132 197.242 130.176 202.963 137.96 198.364M32 92L32 56L36 56L40 56L40 92L40 128L36 128L32 128L32 92M96 92L96 56L100 56L104 56L104 92L104 128L100 128L96 128L96 92M160 92L160 56L164 56L168 56L168 92L168 128L164 128L160 128L160 92M224 92L224 56L228 56L232 56L232 92L232 128L228 128L224 128L224 92M8 20L8 0L132 0L256 0L256 20L256 40L132 40L8 40L8 20M248 20L248 8L132 8L16 8L16 20L16 32L132 32L248 32L248 20" />
    <glyph glyph-name="battery-81"
      unicode="&#xEA11;"
      horiz-adv-x="256" d=" M8 124L8 56L116 56L224 56L224 72L224 88L240 88L256 88L256 124L256 160L240 160L224 160L224 176L224 192L116 192L8 192L8 124M216 124L216 64L116 64L16 64L16 124L16 184L116 184L216 184L216 124M248 124L248 96L236 96L224 96L224 124L224 152L236 152L248 152L248 124" />
    <glyph glyph-name="bell-55"
      unicode="&#xEA12;"
      horiz-adv-x="256" d=" M121.539 246.949C94.828 242.783 70.799 225.72 58.184 201.962C49.832 186.233 48.018 176.49 48.008 147.299C48.003 135.43 47.505 123.766 46.875 120.799C45.203 112.927 41.05 105.463 32.481 94.93C28.261 89.743 23.878 83.7 22.739 81.5C18.077 72.492 18.716 64.029 24.573 57.186C32.825 47.546 58.707 38.718 88.922 35.239L95.344 34.5L96.479 29C98.82 17.652 105.961 8.824 117 3.632C122.656 0.971 124.604 0.574 132 0.574C139.396 0.574 141.344 0.971 147 3.632C158.039 8.824 165.18 17.652 167.521 29L168.656 34.5L175.078 35.239C205.293 38.718 231.175 47.546 239.427 57.186C245.294 64.04 245.921 72.466 241.243 81.559C240.094 83.791 235.978 89.416 232.095 94.059C223.988 103.752 218.705 113.18 217.11 120.799C216.499 123.714 215.991 135.639 215.98 147.299C215.958 171.502 215.105 179.077 211.098 190.704C203.663 212.273 186.862 230.319 164.808 240.425C152.133 246.233 134.243 248.931 121.539 246.949M146.186 238.548C161.659 235.269 173.184 228.809 185.52 216.5C192.727 209.308 195.47 205.692 199.171 198.5C206.976 183.333 207.187 182.161 207.972 149.5C208.607 123.086 208.87 119.92 210.918 114C213.779 105.726 217.515 99.656 226.296 89.009C233.681 80.056 236.942 74.222 236.978 69.9C237.016 65.449 231.9 59.719 224.385 55.793C205.09 45.715 175.734 41.021 132 41.021C88.266 41.021 58.91 45.715 39.615 55.793C32.1 59.719 26.984 65.449 27.022 69.9C27.058 74.218 30.34 80.008 38.414 90C47.586 101.351 50.111 105.489 53.081 114.038C55.121 119.907 55.391 123.113 56.028 149C56.769 179.127 57.095 181.375 62.504 193.605C72.036 215.159 94.481 233.53 117.364 238.507C125.51 240.278 137.939 240.296 146.186 238.548M160.336 31C158.353 22.41 152.601 14.956 144.723 10.769C138.658 7.545 125.342 7.545 119.277 10.769C111.399 14.956 105.647 22.41 103.664 31L103.087 33.5L132 33.5L160.913 33.5L160.336 31" />
    <glyph glyph-name="bold"
      unicode="&#xEA13;"
      horiz-adv-x="256" d=" M32 236L32 232L44 232L56 232L56 124L56 16L44 16L32 16L32 12L32 8L102.542 8C178.994 8 181.506 8.153 193.739 13.563C212.155 21.708 226.553 39.603 230.463 59.208C232.861 71.231 232.073 82.153 227.964 93.843C221.727 111.588 204.594 127.963 187.291 132.717C184.106 133.592 181.13 134.632 180.677 135.027C180.224 135.423 181.421 136.715 183.336 137.899C188.973 141.382 198.57 152.38 201.912 159.186C212.735 181.224 208.613 205.553 191.086 223.091C182.227 231.956 172.327 237.361 162 238.971C158.133 239.574 130.486 239.988 93.75 239.992L32 240L32 236M164.465 230.467C172.812 228.293 179.104 224.576 185.84 217.84C195.461 208.219 200 197.371 200 184C200 171.042 195.553 160.03 186.634 150.905C180.067 144.186 174.117 140.428 166.145 137.964C160.203 136.128 156.674 136 111.895 136L64 136L64 184L64 232L111.29 232C150.55 232 159.579 231.74 164.465 230.467M183.081 126.167C194.817 123.103 205.927 115.165 213.675 104.307C220.221 95.133 223.13 86.667 223.744 74.999C224.911 52.811 213.729 32.936 194.346 22.751C181.424 15.961 181.858 16 119.79 16L64 16L64 72L64 128L120.25 127.942C170.08 127.891 177.251 127.689 183.081 126.167" />
    <glyph glyph-name="bulb-63"
      unicode="&#xEA14;"
      horiz-adv-x="256" d=" M128 236L128 224L132 224L136 224L136 236L136 248L132 248L128 248L128 236M43.974 211.472L41.599 208.945L50.012 200.488L58.424 192.032L61.233 194.724L64.043 197.415L55.793 205.708C51.256 210.268 47.275 214 46.946 214C46.618 214 45.28 212.863 43.974 211.472M208.207 205.708L199.957 197.415L202.767 194.724L205.576 192.032L213.988 200.488L222.401 208.945L220.026 211.472C218.72 212.863 217.382 214 217.054 214C216.725 214 212.744 210.268 208.207 205.708M115.747 198.014C89.009 192.377 66.331 171.043 58.862 144.5C55.736 133.391 55.725 115.842 58.838 104.709C63.424 88.309 73.464 73.463 86.612 63.643C90.767 60.539 94.579 58 95.083 58C95.618 58 96 45.908 96 29L96 0L132 0L168 0L168 29C168 46.302 168.377 58 168.934 58C169.448 58 173.068 60.407 176.979 63.349C190.518 73.535 200.559 88.237 205.12 104.557C208.276 115.849 208.284 133.321 205.138 144.5C198.846 166.858 181.449 186.094 159.874 194.549C145.926 200.016 130.855 201.199 115.747 198.014M147.142 190.47C164.767 186.763 181.236 174.402 191.738 157C198.703 145.458 201.888 123.615 198.624 109.77C194.089 90.53 182.319 74.623 165.495 64.997L160 61.853L160 50.927L160 40L132 40L104 40L104 50.927L104 61.853L98.505 64.997C85.589 72.387 76.149 82.778 69.968 96.411C59.544 119.399 62.822 145.941 78.557 165.969C88.03 178.026 102.46 187.416 116.108 190.401C124.767 192.295 138.322 192.325 147.142 190.47M8 124L8 120L20 120L32 120L32 124L32 128L20 128L8 128L8 124M232 124L232 120L244 120L256 120L256 124L256 128L244 128L232 128L232 124M160 20L160 8L132 8L104 8L104 20L104 32L132 32L160 32L160 20" />
    <glyph glyph-name="bullet-list-67"
      unicode="&#xEA15;"
      horiz-adv-x="256" d=" M35.205 238.165C27.987 235.591 23.026 231.335 19.745 224.902C16.054 217.666 15.36 211.712 17.394 204.718C21.721 189.833 36.858 181.201 51.282 185.394C66.167 189.721 74.799 204.858 70.606 219.282C66.13 234.682 49.824 243.38 35.205 238.165M51.768 230.452C62.182 226.101 66.884 213.845 62.11 203.5C55.031 188.162 32.969 188.162 25.89 203.5C22.567 210.7 24 220.105 29.298 225.868C34.456 231.479 44.437 233.516 51.768 230.452M104 212L104 208L176 208L248 208L248 212L248 216L176 216L104 216L104 212M35.205 150.165C27.987 147.591 23.026 143.335 19.745 136.902C16.054 129.666 15.36 123.712 17.394 116.718C21.721 101.833 36.858 93.201 51.282 97.394C66.167 101.721 74.799 116.858 70.606 131.282C66.13 146.682 49.824 155.38 35.205 150.165M51.768 142.452C62.182 138.101 66.884 125.845 62.11 115.5C55.031 100.162 32.969 100.162 25.89 115.5C22.567 122.7 24 132.105 29.298 137.868C34.456 143.479 44.437 145.516 51.768 142.452M104 124L104 120L176 120L248 120L248 124L248 128L176 128L104 128L104 124M35.205 62.165C27.987 59.591 23.026 55.335 19.745 48.902C16.054 41.666 15.36 35.712 17.394 28.718C21.721 13.833 36.858 5.201 51.282 9.394C66.167 13.721 74.799 28.858 70.606 43.282C66.13 58.682 49.824 67.38 35.205 62.165M51.768 54.452C62.182 50.101 66.884 37.845 62.11 27.5C55.031 12.162 32.969 12.162 25.89 27.5C22.567 34.7 24 44.105 29.298 49.868C34.456 55.479 44.437 57.516 51.768 54.452M104 36L104 32L176 32L248 32L248 36L248 40L176 40L104 40L104 36" />
    <glyph glyph-name="bus-front-12"
      unicode="&#xEA16;"
      horiz-adv-x="256" d=" M51.148 246.099C48.205 245.076 44.605 243.365 43.148 242.297C39.05 239.293 34.286 231.562 33.086 225.967C32.348 222.524 32 190.648 32 126.451L32 32L40 32L48 32L48 16L48 0L72 0L96 0L96 16L96 32L132 32L168 32L168 16L168 0L192 0L216 0L216 16L216 32L224.024 32L232.048 32L231.774 129.25C231.502 225.73 231.483 226.536 229.394 231.051C226.326 237.681 221.731 242.424 215.757 245.124L210.5 247.5L133.5 247.73C60.668 247.947 56.21 247.859 51.148 246.099M212.5 238.11C220.748 234.303 224 228.06 224 216.032L224 208L132 208L40 208L40 216.032C40 228.06 43.252 234.303 51.5 238.11C55.278 239.854 59.737 239.956 132 239.956C204.263 239.956 208.722 239.854 212.5 238.11M224 156L224 112L132 112L40 112L40 156L40 200L132 200L224 200L224 156M8 136L8 120L12 120L16 120L16 136L16 152L12 152L8 152L8 136M248 136L248 120L252 120L256 120L256 136L256 152L252 152L248 152L248 136M224 72L224 40L132 40L40 40L40 72L40 104L132 104L224 104L224 72M66.299 82.04C62.854 79.94 60 75.391 60 72C60 66.623 66.503 60.012 71.8 60.004C77.461 59.995 83.993 66.421 83.993 72C83.993 77.579 77.461 84.005 71.8 83.996C70.535 83.994 68.059 83.114 66.299 82.04M186.299 82.04C182.854 79.94 180 75.391 180 72C180 66.623 186.503 60.012 191.8 60.004C197.461 59.995 203.993 66.421 203.993 72C203.993 77.579 197.461 84.005 191.8 83.996C190.535 83.994 188.059 83.114 186.299 82.04M88 20L88 8L72 8L56 8L56 20L56 32L72 32L88 32L88 20M208 20L208 8L192 8L176 8L176 20L176 32L192 32L208 32L208 20" />
    <glyph glyph-name="button-pause"
      unicode="&#xEA17;"
      horiz-adv-x="256" d=" M24 124L24 8L56 8L88 8L88 124L88 240L56 240L24 240L24 124M176 124L176 8L208 8L240 8L240 124L240 240L208 240L176 240L176 124M80 124L80 16L56 16L32 16L32 124L32 232L56 232L80 232L80 124M232 124L232 16L208 16L184 16L184 124L184 232L208 232L232 232L232 124" />
    <glyph glyph-name="button-play"
      unicode="&#xEA18;"
      horiz-adv-x="256" d=" M48 124.006L48 5.19L145.456 64.345C199.057 96.88 242.919 123.725 242.929 124C242.938 124.275 238.346 127.236 232.723 130.58C227.1 133.923 183.238 160.546 135.25 189.74L48 242.822L48 124.006M161.234 165C197.912 142.725 227.921 124.275 227.921 124C227.921 123.725 197.912 105.275 161.234 83C124.556 60.725 85.874 37.224 75.274 30.774L56 19.049L56 124L56 228.951L75.274 217.226C85.874 210.776 124.556 187.275 161.234 165" />
    <glyph glyph-name="button-power"
      unicode="&#xEA19;"
      horiz-adv-x="256" d=" M128 208L128 168L132 168L136 168L136 208L136 248L132 248L128 248L128 208M68.32 212.526C42.758 195.655 24.932 169.398 18.403 139C15.977 127.705 16.002 104.841 18.452 93.5C25.509 60.835 45.031 33.13 72.5 16.797C93.541 4.287 118.929 -1.362 143.208 1.065C194.069 6.149 234.613 42.768 245.552 93.5C247.998 104.846 248.021 127.715 245.597 139C238.748 170.887 219.563 198.178 192.581 214.412L186.662 217.973L184.831 214.962C183.824 213.307 183 211.781 183 211.572C183 211.363 186.713 208.811 191.25 205.901C207.698 195.351 224.474 175.424 231.875 157.646C237.828 143.346 239.445 134.408 239.41 116C239.382 101.423 239.075 98.377 236.776 89.866C228.262 58.343 207.839 33.181 179.348 19.112C143.399 1.36 101.736 4.991 68.736 28.752C39.1 50.09 22.568 84.504 24.281 121.291C25.591 149.412 35.895 172.255 56.401 192.5C61.415 197.45 69.023 203.683 73.308 206.352C77.593 209.02 80.95 211.495 80.767 211.852C80.585 212.208 79.816 213.737 79.057 215.25C78.299 216.763 77.414 217.983 77.089 217.963C76.765 217.942 72.819 215.496 68.32 212.526" />
    <glyph glyph-name="camera-20"
      unicode="&#xEA1A;"
      horiz-adv-x="256" d=" M24 228L24 224L48 224L72 224L72 228L72 232L48 232L24 232L24 228M114.5 216L98.523 200L53.262 200L8 200L8 108L8 16L132 16L256 16L256 108L256 200L234.738 200L213.477 200L197.5 216L181.523 232L156 232L130.477 232L114.5 216M194.5 208L210.477 192L229.238 192L248 192L248 108L248 24L132 24L16 24L16 108L16 192L58.762 192L101.523 192L117.5 208L133.477 224L156 224L178.523 224L194.5 208M143 166.44C126.543 162.893 109.945 149.964 102.636 135C93.849 117.01 94.103 97.079 103.345 79.5C108.084 70.486 119.805 59.126 129 54.636C153.046 42.894 179.571 47.224 198 65.899C210.551 78.618 215.408 90.366 215.408 108C215.408 125.682 210.537 137.449 197.988 150.083C183.191 164.979 163.457 170.849 143 166.44M50.299 162.04C46.854 159.94 44 155.391 44 152C44 146.623 50.503 140.012 55.8 140.004C61.461 139.995 67.993 146.421 67.993 152C67.993 157.579 61.461 164.005 55.8 163.996C54.535 163.994 52.059 163.114 50.299 162.04M170.081 158.167C182.465 154.934 195.013 144.91 202.008 132.663C210.203 118.313 209.755 96.172 200.974 81.554C196.707 74.45 186.47 64.858 179.612 61.536C159.505 51.799 137.099 54.973 120.935 69.847C109.587 80.291 104.176 92.529 104.058 108.022C103.916 126.526 114.02 143.928 130.5 153.563C140.981 159.691 157.072 161.563 170.081 158.167" />
    <glyph glyph-name="caps-small"
      unicode="&#xEA1B;"
      horiz-adv-x="256" d=" M16 200L16 184L20 184L24 184L24 196L24 208L60 208L96 208L96 124L96 40L76 40L56 40L56 36L56 32L100 32L144 32L144 36L144 40L124 40L104 40L104 124L104 208L140 208L176 208L176 196L176 184L180 184L184 184L184 200L184 216L100 216L16 216L16 200M144 132L144 120L148 120L152 120L152 128L152 136L172 136L192 136L192 88L192 40L180 40L168 40L168 36L168 32L196 32L224 32L224 36L224 40L212 40L200 40L200 88L200 136L220 136L240 136L240 128L240 120L244 120L248 120L248 132L248 144L196 144L144 144L144 132" />
    <glyph glyph-name="cart-simple"
      unicode="&#xEA1C;"
      horiz-adv-x="256" d=" M12 244L12 240L26.37 240L40.74 240L42.439 228.75C43.373 222.562 48.743 186.675 54.371 149L64.605 80.5L148.006 80.5L231.407 80.5L239.655 142C244.191 175.825 247.924 204.513 247.951 205.75L248 208L150.5 208C88.479 208 53 208.351 53 208.966C53 210.375 48.089 243.099 47.479 245.75C46.967 247.978 46.789 248 29.481 248L12 248L12 244M232.334 145.75C228.335 115.912 225.049 90.713 225.032 89.75C225.002 88.099 220.655 88 148 88C103.159 88 71 88.375 71 88.898C71 89.392 67.4 113.738 63 143C58.6 172.262 55 197.058 55 198.102C55 199.952 57.319 200 147.302 200L239.603 200L232.334 145.75M75.205 54.165C67.987 51.591 63.026 47.335 59.745 40.902C56.054 33.666 55.36 27.712 57.394 20.718C61.721 5.833 76.858 -2.799 91.282 1.394C106.167 5.721 114.799 20.858 110.606 35.282C106.13 50.682 89.824 59.38 75.205 54.165M211.205 54.165C203.987 51.591 199.026 47.335 195.745 40.902C192.054 33.666 191.36 27.712 193.394 20.718C197.721 5.833 212.858 -2.799 227.282 1.394C242.167 5.721 250.799 20.858 246.606 35.282C242.13 50.682 225.824 59.38 211.205 54.165M91.768 46.452C102.182 42.101 106.884 29.845 102.11 19.5C99.876 14.659 96.71 11.612 91.768 9.548C84.755 6.618 75.689 8.189 70.132 13.298C62.538 20.279 62.135 34.077 69.298 41.868C74.456 47.479 84.437 49.516 91.768 46.452M227.768 46.452C232.71 44.388 235.876 41.341 238.11 36.5C242.884 26.155 238.182 13.899 227.768 9.548C220.755 6.618 211.689 8.189 206.132 13.298C198.538 20.279 198.135 34.077 205.298 41.868C210.456 47.479 220.437 49.516 227.768 46.452" />
    <glyph glyph-name="cctv"
      unicode="&#xEA1D;"
      horiz-adv-x="256" d=" M132.5 213.276C80.8 203.647 38.365 195.648 38.199 195.5C38.033 195.352 42.646 169.73 48.449 138.562C54.252 107.394 59 81.467 59 80.946C59 80.426 59.563 79.982 60.25 79.96C61.725 79.914 252.316 115.236 252.894 115.664C253.214 115.9 234.073 221.001 232.298 228.75C231.915 230.425 231.109 230.972 229.142 230.891C227.689 230.831 184.2 222.904 132.5 213.276M235.054 172.132C241.425 137.872 243.898 122.555 243.134 122.083C241.655 121.169 66.134 88.514 65.667 89.066C64.865 90.017 47.026 188.36 47.556 188.91C48.468 189.855 224.428 222.706 225.186 222.073C225.563 221.758 230.004 199.284 235.054 172.132M12.287 179.279C9.403 178.92 9.128 178.604 9.596 176.189C9.883 174.71 13.832 153.475 18.372 129L26.626 84.5L30.063 84.845C31.953 85.035 33.646 85.332 33.825 85.504C34.004 85.677 30.292 106.548 25.575 131.884C20.859 157.221 17 178.412 17 178.976C17 179.539 16.663 179.928 16.25 179.84C15.838 179.752 14.054 179.5 12.287 179.279M94.299 166.04C90.854 163.94 88 159.391 88 156C88 150.623 94.503 144.012 99.8 144.004C105.461 143.995 111.993 150.421 111.993 156C111.993 161.579 105.461 168.005 99.8 167.996C98.535 167.994 96.059 167.114 94.299 166.04M102.96 158.548C105.617 155.347 101.715 150.43 98.25 152.612C94.788 154.793 96.021 160 100 160C100.965 160 102.297 159.347 102.96 158.548M169.143 71.109C168.024 70.4 168.52 65.786 171.965 44.875C174.264 30.919 176.367 18.713 176.64 17.75C177.1 16.121 179.868 16 216.567 16L256 16L256 20L256 24L219.5 24C199.425 24 183 24.263 183 24.584C183 25.506 176.046 67.247 175.475 69.75C174.938 72.104 171.782 72.782 169.143 71.109" />
    <glyph glyph-name="chart-bar-32"
      unicode="&#xEA1E;"
      horiz-adv-x="256" d=" M104 124L104 16L132 16L160 16L160 124L160 232L132 232L104 232L104 124M152 124L152 24L132 24L112 24L112 124L112 224L132 224L152 224L152 124M200 92L200 16L228 16L256 16L256 92L256 168L228 168L200 168L200 92M248 92L248 24L228 24L208 24L208 92L208 160L228 160L248 160L248 92M8 60L8 16L36 16L64 16L64 60L64 104L36 104L8 104L8 60M56 60L56 24L36 24L16 24L16 60L16 96L36 96L56 96L56 60" />
    <glyph glyph-name="chart-pie-35"
      unicode="&#xEA1F;"
      horiz-adv-x="256" d=" M118.286 238.968C82.46 234.462 50.356 213.397 32.224 182.5C21.529 164.275 16.698 146.065 16.704 124C16.715 90.565 28.713 62.659 52.894 39.83C71.475 22.289 94.16 11.993 121 8.919C138.513 6.913 160.927 10.548 178.798 18.293C229.627 40.32 257.753 97.654 244.321 151.861C233.751 194.522 198.246 228.492 154.931 237.388C145.265 239.373 127.572 240.136 118.286 238.968M127.979 178.75L127.958 125.5L89.487 89.75C68.328 70.088 50.65 54 50.201 54C49.091 54 41.022 65.246 37.287 72C23.884 96.234 20.324 128.216 28.171 153.886C37.3 183.75 59.687 210.015 86.111 221.864C98.157 227.266 114.982 231.641 124.75 231.91L128 232L127.979 178.75M155.286 229.434C173.849 225.545 191.403 216.202 205.716 202.591C225.129 184.131 236.957 160.399 239.6 134.604L240.276 128L188.138 128L136 128L136 180.129L136 232.258L142.25 231.557C145.688 231.171 151.554 230.216 155.286 229.434M239.544 113.25C234.854 67.298 200.862 28.984 155.347 18.345C144.322 15.769 119.638 15.778 108.57 18.364C91.735 22.297 68.624 34.443 59.099 44.365L55.698 47.907L63.099 54.802C67.17 58.594 84.67 74.815 101.99 90.848L133.48 120L186.856 120L240.233 120L239.544 113.25" />
    <glyph glyph-name="chart-pie-36"
      unicode="&#xEA20;"
      horiz-adv-x="256" d=" M144 192L144 136L200 136L256 136L256 139.039C256 140.711 255.519 146.393 254.931 151.666C249.324 201.953 210.379 241.239 160.469 246.956C155.536 247.521 149.813 247.987 147.75 247.992L144 248L144 192M165.119 238.532C169.729 237.725 176.65 235.99 180.5 234.676C216.776 222.3 243.427 188.922 247.511 150.75L248.233 144L200.116 144L152 144L152 192L152 240L154.369 240C155.672 240 160.509 239.34 165.119 238.532M102.244 214.897C67.295 210.831 35.299 187.905 19.48 155.594C-0.228 115.338 6.809 67.473 37.321 34.251C44.008 26.97 57.93 16.769 68.098 11.698C102.729 -5.57 143.33 -3.011 175.451 18.464C190.982 28.848 200.496 39.076 209.903 55.5C217.841 69.359 222.211 84.501 223.606 102.982L224.287 112L172.143 112L120 112L120 164L120 216L114.75 215.87C111.862 215.799 106.235 215.361 102.244 214.897M112 156L112 104L164.116 104L216.233 104L215.511 97.25C212.03 64.71 192.422 35.767 162.904 19.599C134.85 4.233 97.15 4.233 69.096 19.599C34.057 38.791 14.236 74.015 16.3 113.422C17.827 142.567 32.173 169.935 55.221 187.67C69.487 198.648 92.813 207.467 108.75 207.91L112 208L112 156" />
    <glyph glyph-name="chart"
      unicode="&#xEA21;"
      horiz-adv-x="256" d=" M118.286 238.968C82.46 234.462 50.356 213.397 32.224 182.5C21.529 164.275 16.698 146.065 16.704 124C16.715 90.565 28.713 62.659 52.894 39.83C71.475 22.289 94.16 11.993 121 8.919C138.513 6.913 160.927 10.548 178.798 18.293C229.627 40.32 257.753 97.654 244.321 151.861C233.751 194.522 198.246 228.492 154.931 237.388C145.265 239.373 127.572 240.136 118.286 238.968M128 204.019L128 176.038L125.25 175.461C115.867 173.493 112.878 172.519 107.5 169.674C81.862 156.112 72.506 122.469 87.465 97.629C89.409 94.4 91 91.651 91 91.521C91 90.852 50.966 54 50.239 54C49.097 54 41.079 65.143 37.287 72C23.884 96.234 20.324 128.216 28.171 153.886C37.3 183.75 59.687 210.015 86.111 221.864C98.157 227.266 114.982 231.641 124.75 231.91L128 232L128 204.019M155.286 229.434C173.849 225.545 191.403 216.202 205.716 202.591C225.129 184.131 236.957 160.399 239.6 134.604L240.276 128L212.157 128L184.038 128L183.461 130.75C181.493 140.133 180.519 143.122 177.674 148.5C173.613 156.177 164.177 165.613 156.5 169.674C151.122 172.519 148.133 173.493 138.75 175.461L136 176.038L136 204.148L136 232.258L142.25 231.557C145.688 231.171 151.554 230.216 155.286 229.434M150.035 163.86C169.976 154.333 179.925 133.488 174.489 112.62C172.494 104.96 168.831 98.896 162.413 92.63C145.372 75.993 118.507 75.97 101.57 92.579C95.22 98.805 91.497 104.992 89.511 112.62C83.411 136.039 96.381 158.652 120.5 166.652C122.964 167.469 127.969 167.873 133.535 167.703C141.519 167.459 143.438 167.012 150.035 163.86M239.544 113.25C234.854 67.298 200.862 28.984 155.347 18.345C144.322 15.769 119.638 15.778 108.57 18.364C91.735 22.297 68.624 34.443 59.099 44.365L55.698 47.907L63.573 55.203C67.904 59.217 77.062 67.723 83.924 74.106L96.4 85.713L102.591 81.474C111.81 75.163 120.428 72.546 132 72.546C139.313 72.546 143.058 73.079 148.266 74.86C161.107 79.251 171.58 88.132 177.913 100C180.543 104.929 181.503 107.914 183.461 117.25L184.038 120L212.136 120L240.233 120L239.544 113.25" />
    <glyph glyph-name="chat-round"
      unicode="&#xEA22;"
      horiz-adv-x="256" d=" M116.5 238.899C75.678 234.641 41.592 215.911 22.875 187.453C6.154 162.03 3.732 131.842 16.187 104.083C30.97 71.135 65.189 47.239 108.129 39.878C118.62 38.079 122.855 37.849 136 38.363C144.525 38.696 154.592 39.591 158.372 40.351L165.243 41.732L198.372 28.011C221.132 18.584 231.598 14.697 231.812 15.589C231.984 16.303 231.169 29.979 230.002 45.979L227.878 75.071L232.568 80.285C244.889 93.987 252.627 111.237 255.036 130.376C258.913 161.181 244.657 192.039 216.877 212.972C197.245 227.765 174.702 236.043 146.144 238.947C134.536 240.127 128.173 240.117 116.5 238.899M162.13 229.096C204.686 219.448 234.465 195.011 245.156 160.965C247.151 154.612 247.498 151.415 247.489 139.5C247.48 127.656 247.12 124.351 245.148 118.043C240.891 104.427 234.202 93.125 224.393 82.976L220.02 78.452L221.888 52.476C222.915 38.189 223.67 26.397 223.565 26.271C223.461 26.145 210.615 31.274 195.02 37.668L166.666 49.294L156.083 47.704C139.116 45.155 134.216 44.909 121.374 45.964C76.957 49.613 40.316 71.979 24.204 105.28C18.129 117.834 16.501 125.279 16.501 140.5C16.502 154.851 18.256 162.578 24.212 174.465C39.269 204.516 75.354 227.011 115.5 231.372C125.134 232.419 153.603 231.029 162.13 229.096" />
    <glyph glyph-name="check-2"
      unicode="&#xEA23;"
      horiz-adv-x="256" d=" M171.751 129.253L100.004 57.506L60.011 97.489L20.018 137.473L17.271 134.726L14.524 131.979L57.262 89.241L100.001 46.502L174.711 121.213L249.421 195.923L247.036 198.461C245.725 199.858 244.392 201 244.075 201C243.758 201 211.212 168.714 171.751 129.253" />
    <glyph glyph-name="circle-09"
      unicode="&#xEA24;"
      horiz-adv-x="256" d=" M118.174 246.89C45.373 238.434 -3.825 170.182 11.026 98.242C17.727 65.78 39.512 35.034 67.596 18.404C107.844 -5.43 155.681 -5.724 195.013 17.62C242.804 45.984 265.801 102.37 251.45 156C239.911 199.121 205.231 233.186 162 243.863C146.614 247.663 132.953 248.606 118.174 246.89M154 237.991C193.187 229.677 225.627 202.814 239.815 166.931C245.803 151.786 247.381 143.096 247.431 125C247.49 103.437 244.528 89.975 235.816 72.211C230.517 61.408 214.648 40 211.938 40C211.569 40 210.316 42.61 209.154 45.799C203.712 60.722 196.029 67.179 173.267 75.957C166.712 78.485 164.23 80.064 160.792 83.892C156.821 88.313 152.906 96.461 153.052 100C153.086 100.825 155.325 103.184 158.027 105.242C170.241 114.543 174.932 124.419 175.725 142.5C176.719 165.184 173.011 177.145 161.751 187.57C154.486 194.296 147.596 197.728 138.523 199.141C125.125 201.227 112.729 197.273 102.249 187.57C91.805 177.901 88.017 167.239 88.013 147.5C88.01 128.178 91.776 118.048 102.679 108.057C106.315 104.726 109.674 102 110.145 102C113.394 102 107.251 87.408 101.834 82.259C99.698 80.23 94.236 77.346 87.216 74.542C66.333 66.202 58.336 58.919 53.953 44.25C53.255 41.913 52.349 40 51.941 40C50.975 40 42.296 50.095 37.755 56.5C28.905 68.981 22.812 82.249 18.926 97.5C17.027 104.952 16.621 109.253 16.566 122.5C16.454 149.64 21.646 167.38 35.966 188.788C42.71 198.869 58.739 214.928 68.155 221.038C81.589 229.754 99.265 236.59 114.5 238.961C122.07 240.139 146.731 239.533 154 237.991M144.75 189.743C153.734 186.553 162.885 177.111 166.15 167.664C168.747 160.149 168.746 136.571 166.148 128.695C162.81 118.579 154.224 109.794 143.803 105.833C136.114 102.91 124.52 103.508 116.967 107.218C109.903 110.687 102.687 117.903 99.218 124.967C96.575 130.347 96.5 130.984 96.5 148C96.5 165.007 96.576 165.655 99.209 171C103.81 180.341 112.528 187.928 121.678 190.555C127.522 192.233 138.86 191.834 144.75 189.743M133.5 96.799C137.35 96.932 141.555 97.145 142.844 97.271C144.876 97.47 145.495 96.655 147.507 91.14C151.749 79.513 158.528 73.327 173.295 67.605C186.051 62.662 194.252 57.248 198.049 51.263C201.027 46.567 204 38.358 204 34.828C204 30.196 176.862 15.572 160.5 11.387C141.499 6.528 118.623 6.994 99.095 12.64C83.658 17.102 60.871 30.018 60.193 34.689C59.688 38.171 62.886 47.543 66.087 51.962C69.885 57.204 78.908 63.055 89.356 67.05C93.835 68.763 99.368 71.246 101.651 72.567C107.056 75.694 113.294 82.844 115.313 88.226C116.195 90.577 117.382 93.758 117.951 95.297C118.915 97.9 119.245 98.04 122.743 97.325C124.809 96.902 129.65 96.665 133.5 96.799" />
    <glyph glyph-name="circle"
      unicode="&#xEA25;"
      horiz-adv-x="256" d=" M115.5 246.535C64.958 239.497 24.548 203.431 12.071 154.225C6.136 130.817 7.393 105.665 15.68 82C17.124 77.875 18.429 74.346 18.578 74.158C18.728 73.97 20.471 74.402 22.451 75.119C25.089 76.072 25.875 76.833 25.387 77.96C22.453 84.75 18.708 97.808 17.394 105.832C15.484 117.493 16.008 137.673 18.516 149C25.856 182.162 50.051 213.103 80.5 228.268C106.989 241.461 140.828 243.571 169.5 233.819C186.135 228.161 199.85 219.746 212.136 207.658C225.45 194.558 233.382 182.775 239.913 166.396C244.953 153.758 247.08 143.504 247.75 128.625C249.225 95.862 237.005 64.74 213.623 41.71C191.292 19.715 162.941 8 132.045 8C107.231 8 85.777 14.672 65.808 28.599L58.116 33.963L56.053 31.34C53.489 28.081 53.945 27.447 63.471 21.021C111.902 -11.651 177.801 -5.088 219.444 36.556C267.685 84.796 267.685 163.204 219.444 211.444C199.936 230.953 176.164 242.621 148 246.511C135.568 248.228 127.702 248.234 115.5 246.535" />
    <glyph glyph-name="cloud-download-93"
      unicode="&#xEA26;"
      horiz-adv-x="256" d=" M122.5 247.443C121.4 247.189 118.025 246.486 115 245.882C93.269 241.541 73.867 228.233 61.598 209.252C59.197 205.538 56.129 199.879 54.78 196.675C52.36 190.93 52.234 190.817 45.637 188.512C36.509 185.323 30.077 180.983 22.946 173.199C13.726 163.137 8.035 148.94 8.035 136C8.035 129.165 10.617 118.416 13.99 111.208C17.735 103.205 29.998 90.541 37.846 86.572C48.621 81.124 56.027 80 81.16 80L104 80L104 84L104 88L81.21 88C57.055 88 51.367 88.76 42 93.236C36.385 95.92 27.048 104.692 22.86 111.219C16.655 120.888 14.354 136.228 17.395 147.65C21.694 163.797 37.714 179.792 52.334 182.535C57.165 183.441 58.216 184.53 60.99 191.5C68.433 210.198 82.396 224.774 101.16 233.434C123.664 243.821 152.517 241.706 172.92 228.175C191.363 215.943 204.198 196.788 207.286 176.889L208.563 168.663L214.968 167.356C224.322 165.448 231.421 161.454 237.604 154.622C244.139 147.401 247.174 140.112 247.779 130.187C248.896 111.871 238.11 96.059 220.327 89.94C215.282 88.205 211.802 88 187.343 88L160 88L160 84L160 80L185.951 80C214.247 80 219.055 80.586 228.911 85.233C236.621 88.868 242.652 94.229 247.939 102.147C253.174 109.987 255.318 117.49 255.326 128C255.336 142.102 251.556 151.369 241.717 161.369C235.27 167.92 226.106 173.172 218.75 174.53C215.789 175.077 215 175.677 215 177.381C215 181.482 210.942 194.166 207.34 201.321C200.918 214.08 190.883 225.287 178.168 233.898C169.945 239.467 163.169 242.52 153.41 245.054C145.883 247.008 126.943 248.472 122.5 247.443M128 80.76L128 21.521L110.006 39.494L92.012 57.467L89.269 54.723L86.525 51.98L109.263 29.243L132 6.505L154.737 29.243L177.475 51.98L174.731 54.723L171.988 57.467L153.994 39.494L136 21.521L136 80.76L136 140L132 140L128 140L128 80.76" />
    <glyph glyph-name="cloud-upload-94"
      unicode="&#xEA27;"
      horiz-adv-x="256" d=" M122.5 231.443C121.4 231.189 118.025 230.486 115 229.882C93.269 225.541 73.867 212.233 61.598 193.252C59.197 189.538 56.129 183.879 54.78 180.675C52.36 174.93 52.234 174.817 45.637 172.512C36.509 169.323 30.077 164.983 22.946 157.199C13.726 147.137 8.035 132.94 8.035 120C8.035 113.165 10.617 102.416 13.99 95.208C17.735 87.205 29.998 74.541 37.846 70.572C48.621 65.124 56.027 64 81.16 64L104 64L104 68L104 72L81.21 72C57.055 72 51.367 72.76 42 77.236C36.385 79.92 27.048 88.692 22.86 95.219C16.655 104.888 14.354 120.228 17.395 131.65C21.694 147.797 37.714 163.792 52.334 166.535C57.165 167.441 58.216 168.53 60.99 175.5C68.433 194.198 82.396 208.774 101.16 217.434C123.664 227.821 152.517 225.706 172.92 212.175C191.363 199.943 204.198 180.788 207.286 160.889L208.563 152.663L214.968 151.356C224.322 149.448 231.421 145.454 237.604 138.622C244.139 131.401 247.174 124.112 247.779 114.187C248.896 95.871 238.11 80.059 220.327 73.94C215.282 72.205 211.802 72 187.343 72L160 72L160 68L160 64L185.951 64C214.247 64 219.055 64.586 228.911 69.233C236.621 72.868 242.652 78.229 247.939 86.147C253.174 93.987 255.318 101.49 255.326 112C255.336 126.102 251.556 135.369 241.717 145.369C235.27 151.92 226.106 157.172 218.75 158.53C215.789 159.077 215 159.677 215 161.381C215 165.482 210.942 178.166 207.34 185.321C200.918 198.08 190.883 209.287 178.168 217.898C169.945 223.467 163.169 226.52 153.41 229.054C145.883 231.008 126.943 232.472 122.5 231.443M109.007 122.507L86.531 100.014L89.272 97.274L92.012 94.533L110.006 112.506L128 130.479L128 71.24L128 12L132 12L136 12L136 71.24L136 130.479L153.994 112.506L171.988 94.533L174.728 97.274L177.469 100.014L154.993 122.507C142.631 134.878 132.284 145 132 145C131.716 145 121.369 134.878 109.007 122.507" />
    <glyph glyph-name="compass-05"
      unicode="&#xEA28;"
      horiz-adv-x="256" d=" M115.5 246.528C77.425 241.197 44.515 219.316 25.215 186.5C2.838 148.451 2.838 99.549 25.215 61.5C45.575 26.882 79.543 5.33 120.75 0.887C149.609 -2.225 181.462 6.666 205.622 24.575C246.289 54.722 264.539 107.079 251.441 156.022C238.258 205.284 196.863 240.801 145.5 246.922C134.374 248.248 127.103 248.152 115.5 246.528M150.916 238.465C167.263 235.814 182.933 229.42 197.573 219.428C254.602 180.504 264.923 100.427 219.648 48.169C177.727 -0.219 104.49 -5.513 56.169 36.352C7.697 78.346 2.388 151.395 44.292 199.763C70.753 230.305 111.047 244.931 150.916 238.465M150.081 169.001C125.65 159.134 105.36 150.71 104.991 150.281C104.471 149.674 83.321 97.229 70.91 65.767L69.042 61.033L73.271 62.701C110.823 77.511 158.541 97.254 159.151 98.233C159.585 98.93 166.979 117.05 175.582 138.5C194.598 185.915 195.03 187.008 194.735 186.97C194.606 186.953 174.511 178.867 150.081 169.001M179.092 168.25C162.462 126.216 153.511 104.293 152.609 103.391C151.708 102.489 129.809 93.548 87.774 76.918L83.048 75.048L84.918 79.774C99.99 117.873 110.46 143.686 111.15 144.454C111.761 145.133 178.671 172.536 180.735 172.953C180.865 172.979 180.125 170.862 179.092 168.25M128.321 130.811C122.798 128.141 123.282 119.368 129.086 116.964C137.991 113.276 144.152 126.876 135.385 130.87C132.428 132.218 131.21 132.208 128.321 130.811" />
    <glyph glyph-name="controller-modern"
      unicode="&#xEA29;"
      horiz-adv-x="256" d=" M128 212L128 184L132 184L136 184L136 212L136 240L132 240L128 240L128 212M59.5 176.601C47.534 172.817 36.167 161.797 32.922 150.834C30.954 144.187 8 31.563 8.004 28.572C8.013 21.34 15.142 15.01 23.285 15.004C28.959 14.999 28.516 14.735 50.752 31.355L68.004 44.249L75.025 41.992C83.509 39.264 88.96 39.702 96.957 43.755C103.315 46.977 108.527 53.203 110.245 59.627L111.415 64L132 64L152.585 64L153.755 59.627C155.473 53.203 160.685 46.977 167.043 43.755C175.048 39.698 180.489 39.263 189.002 42.001L196.049 44.267L213.275 31.324C234.771 15.172 235.054 15 240.014 15C247.224 15 254.268 20.581 255.527 27.292C256.279 31.3 233.888 145.502 230.735 153.742C227.76 161.515 219.595 170.089 211.26 174.193C205.633 176.963 203.413 177.472 195.602 177.783C188.296 178.073 185.334 177.736 180.592 176.072C174.654 173.988 167.023 168.774 161.563 163.069L158.626 160L132.728 160L106.83 160L100.165 165.811C92.147 172.802 89.981 174.176 83.572 176.338C77.733 178.307 65.324 178.443 59.5 176.601M76.535 169.909C84.58 168.422 88.346 166.306 96.677 158.593L103.798 152L132.527 152L161.257 152L168.122 158.477C176.092 165.995 180.367 168.412 188.282 169.875C194.873 171.093 203.311 169.917 208.968 166.991C213.623 164.584 220.26 157.561 222.934 152.214C225.028 148.026 248 35.651 248 29.595C248 26.748 243.804 22 241.288 22C240.507 22 238.886 22.507 237.684 23.127C234.734 24.649 202 49.082 202 49.762C202 50.058 203.12 52.596 204.489 55.4C207.952 62.493 208.588 68.466 206.606 75.282C203.025 87.602 192.632 95.5 180 95.5C167.844 95.5 156.698 87.377 153.755 76.373L152.585 72L132 72L111.415 72L110.245 76.373C108.485 82.953 103.329 89.011 96.528 92.49C80.824 100.521 62.372 92.407 57.394 75.282C55.412 68.466 56.048 62.493 59.511 55.4C60.88 52.596 62 50.058 62 49.762C62 48.902 28.784 24.299 25.795 22.945C22.154 21.296 17.464 23.207 16.226 26.844C15.534 28.876 18.081 42.886 27.071 86.5C33.533 117.85 39.553 145.846 40.449 148.712C42.444 155.095 50.187 163.944 56.415 166.959C60.057 168.722 62.513 169.429 70.066 170.89C70.378 170.951 73.289 170.509 76.535 169.909M91.768 86.452C102.182 82.101 106.884 69.845 102.11 59.5C99.876 54.659 96.71 51.612 91.768 49.548C84.755 46.618 75.689 48.189 70.132 53.298C62.538 60.279 62.135 74.077 69.298 81.868C74.456 87.479 84.437 89.516 91.768 86.452M187.768 86.452C192.71 84.388 195.876 81.341 198.11 76.5C202.884 66.155 198.182 53.899 187.768 49.548C180.755 46.618 171.689 48.189 166.132 53.298C158.538 60.279 158.135 74.077 165.298 81.868C170.456 87.479 180.437 89.516 187.768 86.452" />
    <glyph glyph-name="credit-card"
      unicode="&#xEA2A;"
      horiz-adv-x="256" d=" M18.899 213.216C14.584 210.962 13.038 209.416 10.784 205.101L8 199.772L8 124.082L8 48.393L10.533 43.309C12.116 40.133 14.616 37.152 17.198 35.363L21.329 32.5L132 32.5L242.671 32.5L246.659 35.264C248.853 36.784 251.739 39.934 253.074 42.264L255.5 46.5L255.774 123.09L256.048 199.68L253.24 205.056C250.96 209.419 249.428 210.955 245.101 213.216L239.772 216L132 216L24.228 216L18.899 213.216M242.433 206.054C247.225 202.894 247.926 200.576 247.965 187.75L248 176L132 176L16 176L16.035 187.75C16.074 200.576 16.775 202.894 21.567 206.054C24.42 207.934 27.417 207.987 132 207.987C236.583 207.987 239.58 207.934 242.433 206.054M248 152L248 136L132 136L16 136L16 152L16 168L132 168L248 168L248 152M248 88.404C248 44.996 248.029 45.22 241.96 41.636C239.443 40.149 229.43 40.001 131.846 40.007C27.421 40.013 24.42 40.066 21.567 41.946C16.035 45.593 16.074 45.272 16.035 88.25L16 128L132 128L248 128L248 88.404M40 84L40 80L72 80L104 80L104 84L104 88L72 88L40 88L40 84M200 84L200 80L212 80L224 80L224 84L224 88L212 88L200 88L200 84" />
    <glyph glyph-name="delivery-fast"
      unicode="&#xEA2B;"
      horiz-adv-x="256" d=" M8 228L8 224L64 224L120 224L120 132L120 40L132.372 40L144.744 40L145.399 35.908C146.792 27.196 154.099 17.43 162.712 12.768C176.428 5.343 192.91 7.424 204.42 18.033C209.455 22.674 213.661 30.029 214.585 35.807L215.256 40L235.628 40L256 40L256 75.347L256 110.695L240.205 118.248C231.518 122.402 223.94 126.408 223.366 127.151C222.792 127.893 216.997 142.787 210.487 160.25L198.651 192L163.326 192L128 192L128 212L128 232L68 232L8 232L8 228M24 188L24 184L60 184L96 184L96 188L96 192L60 192L24 192L24 188M205.068 152.737L216.637 121.5L232.318 113.605L248 105.709L248 76.855L248 48L231.628 48L215.256 48L214.601 52.092C211.816 69.51 191.981 82.595 173.75 79.042C159.316 76.229 147.455 64.954 145.399 52.092L144.744 48L136.372 48L128 48L128 116L128 184L160.75 183.987L193.5 183.973L205.068 152.737M152 140L152 120L172 120L192 120L192 124L192 128L176 128L160 128L160 144L160 160L156 160L152 160L152 140M40 148L40 144L68 144L96 144L96 148L96 152L68 152L40 152L40 148M56 108L56 104L76 104L96 104L96 108L96 112L76 112L56 112L56 108M189.563 70.324C199.837 66.823 208 55.168 208 44C208 28.942 195.058 16 180 16C164.942 16 152 28.942 152 44C152 51.511 154.749 57.879 160.453 63.584C168.453 71.583 178.822 73.984 189.563 70.324" />
    <glyph glyph-name="email-83"
      unicode="&#xEA2C;"
      horiz-adv-x="256" d=" M8 124L8 32L132 32L256 32L256 124L256 216L132 216L8 216L8 124M248 191.096L248 174.192L190.623 143.596C159.065 126.768 132.685 113 132 113C131.315 113 104.935 126.768 73.377 143.596L16 174.192L16 191.096L16 208L132 208L248 208L248 191.096M74.098 134.5C105.617 117.725 131.673 104 132 104C132.327 104 158.383 117.725 189.902 134.5C221.421 151.275 247.387 165 247.604 165C247.822 165 248 136.875 248 102.5L248 40L132 40L16 40L16 102.5C16 136.875 16.178 165 16.396 165C16.613 165 42.579 151.275 74.098 134.5" />
    <glyph glyph-name="email-85"
      unicode="&#xEA2D;"
      horiz-adv-x="256" d=" M8 124L8 32L132 32L256 32L256 124L256 216L132 216L8 216L8 124M248 124L248 40L132 40L16 40L16 124L16 208L132 208L248 208L248 124M44.051 179.855C42.81 178.177 42.179 176.471 42.648 176.062C43.116 175.654 63.413 159.027 87.751 139.112L132.002 102.904L176.959 139.702C201.685 159.941 221.919 176.725 221.922 177C221.925 177.275 220.932 178.705 219.714 180.178L217.5 182.855L174.751 147.861L132.003 112.866L91.297 146.183C68.908 164.507 49.627 180.266 48.448 181.202C46.383 182.844 46.225 182.795 44.051 179.855M56.776 98.256L41.052 78.533L43.776 76.305C45.274 75.079 46.8 74.172 47.166 74.288C47.532 74.405 54.835 83.266 63.394 93.979L78.958 113.459L76.229 115.693C74.728 116.922 73.275 117.939 73 117.953C72.725 117.967 65.424 109.103 56.776 98.256M187.771 115.691L185.042 113.459L200.606 93.979C209.165 83.266 216.468 74.405 216.834 74.288C217.2 74.172 218.728 75.081 220.229 76.309L222.958 78.541L207.394 98.021C198.835 108.734 191.532 117.595 191.166 117.712C190.8 117.828 189.272 116.919 187.771 115.691" />
    <glyph glyph-name="explore-2"
      unicode="&#xEA2E;"
      horiz-adv-x="256" d=" M128 228L128 208L132 208L136 208L136 228L136 248L132 248L128 248L128 228M56.968 198.466L54.587 195.931L61.287 189.232L67.987 182.532L70.717 185.263L73.448 187.994L67.003 194.497C63.458 198.074 60.286 201 59.953 201C59.621 201 58.277 199.86 56.968 198.466M196.997 194.497L190.552 187.994L193.283 185.263L196.013 182.532L202.713 189.232L209.413 195.931L207.032 198.466C205.723 199.86 204.379 201 204.047 201C203.714 201 200.542 198.074 196.997 194.497M120.263 174.486C106.034 171.395 92.257 160.42 85.627 146.895C71.743 118.573 85.724 85.122 115.734 74.86C125.209 71.62 138.791 71.62 148.266 74.86C184.842 87.367 195.78 133.322 168.624 160.395C155.585 173.393 138.35 178.415 120.263 174.486M150.035 163.86C169.976 154.333 179.925 133.488 174.489 112.62C172.494 104.96 168.831 98.896 162.413 92.63C145.372 75.993 118.507 75.97 101.57 92.579C95.22 98.805 91.497 104.992 89.511 112.62C83.411 136.039 96.381 158.652 120.5 166.652C122.964 167.469 127.969 167.873 133.535 167.703C141.519 167.459 143.438 167.012 150.035 163.86M8 124L8 120L28 120L48 120L48 124L48 128L28 128L8 128L8 124M216 124L216 120L236 120L256 120L256 124L256 128L236 128L216 128L216 124M60.997 58.497L54.552 51.994L57.283 49.263L60.013 46.532L66.713 53.232L73.413 59.931L71.032 62.466C69.723 63.86 68.379 65 68.047 65C67.714 65 64.542 62.074 60.997 58.497M192.968 62.466L190.587 59.931L197.287 53.232L203.987 46.532L206.717 49.263L209.448 51.994L203.003 58.497C199.458 62.074 196.286 65 195.953 65C195.621 65 194.277 63.86 192.968 62.466M128 20L128 0L132 0L136 0L136 20L136 40L132 40L128 40L128 20" />
    <glyph glyph-name="fav-remove"
      unicode="&#xEA2F;"
      horiz-adv-x="256" d=" M16.966 238.464L14.584 235.929L24.112 226.401L33.639 216.874L27.57 210.619C17.339 200.075 11.374 187.713 8.925 171.977C6.707 157.729 9.037 144.642 16.308 130.5C20.18 122.969 23.479 119.394 72.612 69.5C101.317 40.35 126.454 14.925 128.472 13L132.141 9.5L158.997 37L185.852 64.5L214.918 35.515L243.984 6.529L246.73 9.275L249.476 12.021L134.989 126.511C72.022 189.48 20.243 241 19.926 241C19.608 241 18.277 239.859 16.966 238.464M72 228.294L72 224.294L81.25 223.732C100.134 222.586 117.171 212.886 128.658 196.74C130.122 194.683 131.636 193 132.024 193C132.411 193 134 194.836 135.555 197.08C140.32 203.955 152.218 214.301 159.372 217.789C169.432 222.694 177.67 224.307 189.5 223.69C195.434 223.381 202.172 222.327 206.072 221.099C223.362 215.655 239.754 199.118 245.285 181.542C247.088 175.811 247.495 172.173 247.473 162C247.426 140.775 243.184 132.43 220.713 109.354L206.927 95.197L209.488 92.348L212.05 89.5L226.551 104.5C234.526 112.75 242.711 121.971 244.739 124.992C252.598 136.692 256.598 152.169 255.561 166.866C254.772 178.044 253.496 182.987 248.944 192.5C244.071 202.684 236.998 211.338 228.328 217.725C219.898 223.936 215.571 226.145 205.988 229.131C195.334 232.451 177.737 232.461 167 229.154C155.008 225.461 147.648 220.966 137.773 211.305L132.046 205.702L124.773 212.603C112.791 223.973 98.033 230.289 80.25 231.659L72 232.295L72 228.294M180 69.495C180 68.939 169.199 57.691 155.998 44.498L131.996 20.512L85.398 67.006C59.768 92.578 35.97 116.771 32.513 120.769C20.291 134.903 15.437 148.114 16.261 165C17.061 181.409 22.953 194.937 34.063 205.873L39.384 211.111L109.692 140.808C148.361 102.142 180 70.051 180 69.495" />
    <glyph glyph-name="favourite-28"
      unicode="&#xEA30;"
      horiz-adv-x="256" d=" M68 247.34C45.271 243.819 25.345 229.088 15.519 208.544C9.715 196.411 8.478 190.755 8.617 177C8.711 167.622 9.231 163.84 11.433 156.505C18.153 134.121 32.903 109.894 57.945 80.112C71.092 64.475 103.037 32.162 120.252 17.086L132.003 6.794L142.252 15.608C157.592 28.8 193.068 64.665 206.055 80.112C231.09 109.886 245.829 134.093 252.573 156.505C254.798 163.899 255.295 167.547 255.365 177C255.466 190.799 254.206 196.576 248.481 208.544C243.541 218.873 234.301 229.684 225.035 235.976C206.539 248.537 183.168 251.133 161.696 243.011C154.028 240.111 142.507 232.318 136.685 226.094L132 221.086L127.315 226.094C121.494 232.317 109.974 240.11 102.304 243.012C92.032 246.899 77.218 248.769 68 247.34M90.615 238.528C106.007 234.898 122.962 222.61 130.908 209.325C131.965 207.558 132.035 207.558 133.092 209.325C135.81 213.869 143.117 221.904 148.415 226.175C167.41 241.487 193.108 244.29 214.257 233.357C223.419 228.621 236.095 216.174 240.779 207.314C257.782 175.151 244.703 137.045 197.918 82.437C187.432 70.198 156.639 39.018 141.75 25.564L132 16.754L123.294 24.627C107.57 38.847 88.277 57.957 75.875 71.597C21.028 131.919 5.086 173.009 23.221 207.314C27.913 216.19 40.58 228.621 49.776 233.375C61.958 239.673 77.465 241.629 90.615 238.528" />
    <glyph glyph-name="globe-2"
      unicode="&#xEA31;"
      horiz-adv-x="256" d=" M192.618 241.931C191.621 240.243 190.961 238.763 191.153 238.643C200.03 233.051 215.225 217.944 221.472 208.5C246.117 171.242 246.141 125.286 221.535 87.5C216.573 79.879 200.327 63.657 192.5 58.507C174.211 46.473 153.256 40.025 132.381 40.008C96.678 39.978 62.853 57.893 42.806 87.451C39.43 92.428 36.549 96.656 36.404 96.847C36.258 97.039 34.748 96.374 33.049 95.37C31.128 94.235 30.168 93.003 30.511 92.111C32.406 87.173 41.805 75.061 50.433 66.44C70.743 46.144 92.668 35.781 122.25 32.495L128 31.856L128 19.928L128 8L104 8L80 8L80 4L80 0L132 0L184 0L184 4L184 8L160 8L136 8L136 19.939L136 31.877L140.75 32.462C165.148 35.464 179.253 40.477 197.847 52.754C205.41 57.749 218.912 70.787 224.934 78.913C234.725 92.125 241.794 108.1 245.547 125.5C247.648 135.238 247.94 157.36 246.102 167.5C242.133 189.394 231.828 210.29 217.192 226.12C210.971 232.849 196.785 245 195.15 245C194.755 245 193.615 243.619 192.618 241.931M122.5 231.443C121.4 231.189 118.025 230.5 115 229.913C108.376 228.628 100.797 225.941 93.729 222.372C53.177 201.892 36.707 151.742 57.062 110.717C72.559 79.482 106.933 60.806 141.25 64.976C177.151 69.339 203.902 93.015 213.588 129C215.734 136.972 216.051 156.991 214.158 165C212.541 171.844 207.673 184.548 204.494 190.221C194.117 208.737 173.658 223.8 151 229.604C145.395 231.04 126.127 232.283 122.5 231.443M154.631 220.788C174.96 214.74 193.98 197.369 202.473 177.095C209.784 159.642 209.719 136.152 202.312 118.554C192.715 95.752 171.172 78.128 147.162 73.434C105.876 65.364 65.993 91.535 57.592 132.21C52.116 158.718 60.301 184.778 79.913 203.279C95.839 218.303 111.965 224.303 134.5 223.588C143.427 223.305 148.582 222.588 154.631 220.788" />
    <glyph glyph-name="grid-45"
      unicode="&#xEA32;"
      horiz-adv-x="256" d=" M16 192L16 144L64 144L112 144L112 192L112 240L64 240L16 240L16 192M152 192L152 144L200 144L248 144L248 192L248 240L200 240L152 240L152 192M104 192L104 152L64 152L24 152L24 192L24 232L64 232L104 232L104 192M240 192L240 152L200 152L160 152L160 192L160 232L200 232L240 232L240 192M16 56L16 8L64 8L112 8L112 56L112 104L64 104L16 104L16 56M152 56L152 8L200 8L248 8L248 56L248 104L200 104L152 104L152 56M104 56L104 16L64 16L24 16L24 56L24 96L64 96L104 96L104 56M240 56L240 16L200 16L160 16L160 56L160 96L200 96L240 96L240 56" />
    <glyph glyph-name="headphones-2"
      unicode="&#xEA33;"
      horiz-adv-x="256" d=" M96.061 246.962C65.372 242.758 37.712 219.81 28.557 190.959C24.768 179.017 24 169.93 24 137.065L24 106.275L20.928 102.409C6.096 83.746 4.126 53.113 16.442 32.664C26.835 15.41 40.977 5.294 60.132 1.413C68.1 -0.201 79.598 -0.116 85.75 1.604L88 2.233L88 64L88 125.767L85.75 126.396C84.513 126.742 80.105 127.304 75.956 127.645C62.918 128.716 47.641 124.624 36.428 117.056L32 114.068L32 142.946C32 174.228 32.792 181.606 37.357 192.84C45.58 213.077 65.654 231.245 86.328 237.161C94.241 239.426 95.687 239.5 132 239.5C168.313 239.5 169.759 239.426 177.672 237.161C198.344 231.246 217.882 213.604 226.473 193.095C231.194 181.825 232 174.514 232 142.97L232 114.115L226.75 117.576C216.064 124.622 201.161 128.535 188.5 127.619C184.1 127.301 179.488 126.754 178.25 126.404L176 125.767L176 64L176 2.233L178.25 1.604C188.517 -1.266 206.317 0.512 217.695 5.544C254.451 21.799 267.182 67.836 244.043 100.823L240 106.587L240 137.221C240 169.933 239.229 179.026 235.443 190.959C227.407 216.285 204.238 237.957 177.5 245.155C170.179 247.126 166.657 247.332 136 247.577C117.575 247.724 99.602 247.447 96.061 246.962M79.758 64.25L79.5 8.5L70.5 8.507C65.55 8.511 60.263 8.857 58.75 9.276L56 10.038L56 64L56 117.962L58.75 118.568C60.263 118.902 61.95 119.325 62.5 119.509C63.05 119.692 67.216 119.878 71.758 119.921L80.017 120L79.758 64.25M206.25 118.517C207.886 117.834 208 114.276 208 63.912L208 10.038L205.25 9.276C203.738 8.857 198.45 8.511 193.5 8.507L184.5 8.5L184.242 64.381L183.983 120.263L194.242 119.755C199.884 119.476 205.287 118.918 206.25 118.517M48 64.5C48 24.762 47.734 14.002 46.75 14.01C44.475 14.027 32.176 23.993 28.079 29.139C14.797 45.82 12.186 69.323 21.485 88.5C25.258 96.279 32.908 105.044 40.47 110.25C44.265 112.863 47.512 115 47.685 115C47.858 115 48 92.275 48 64.5M226.35 108.319C231.699 104.549 239.086 95.482 242.496 88.5C252.529 67.963 248.63 42.223 233.033 26.035C227.979 20.788 218.825 14 216.804 14C216.362 14 216 36.769 216 64.598L216 115.196L218.919 113.348C220.524 112.332 223.868 110.069 226.35 108.319" />
    <glyph glyph-name="html5"
      unicode="&#xEA34;"
      horiz-adv-x="256" d=" M24.322 233.75C24.65 230.312 28.378 183.85 32.606 130.5C36.834 77.15 40.35 33.415 40.419 33.311C40.489 33.207 61.123 27.448 86.273 20.514L132 7.906L177.727 20.514C202.877 27.448 223.511 33.207 223.581 33.311C223.65 33.415 227.166 77.15 231.394 130.5C235.622 183.85 239.35 230.312 239.678 233.75L240.276 240L132 240L23.724 240L24.322 233.75M231.625 228.25C231.323 226.187 227.833 183.1 223.87 132.5C219.584 77.771 216.227 40.046 215.583 39.38C214.987 38.764 195.938 33.223 173.25 27.066L132 15.872L90.75 27.066C68.063 33.223 49.013 38.764 48.417 39.38C47.773 40.046 44.416 77.771 40.13 132.5C36.167 183.1 32.677 226.187 32.375 228.25L31.824 232L132 232L232.176 232L231.625 228.25M72.307 185.25C72.633 181.537 73.681 167.138 74.635 153.25L76.369 128L128.192 128L180.014 128L179.434 121.25C179.115 117.537 178.287 106.513 177.595 96.752C176.903 86.99 176.149 78.844 175.918 78.649C175.688 78.454 165.718 75.056 153.763 71.098L132.026 63.901L110.013 71.199L88 78.496L88 87.248L88 96L84 96L80 96L80 84.583L80 73.166L106 64.5L132 55.834L158 64.5L184 73.166L184.013 76.333C184.02 78.075 184.914 91.425 186 106C187.086 120.575 187.98 133.283 187.987 134.241C187.999 135.871 184.65 135.999 135.75 136.241L83.5 136.5L82.334 153.5C81.692 162.85 80.901 173.537 80.577 177.25L79.986 184L135.993 184L192 184L192 188L192 192L131.856 192L71.713 192L72.307 185.25" />
    <glyph glyph-name="istanbul"
      unicode="&#xEA35;"
      horiz-adv-x="256" d=" M32 235.5C32 223.585 31.904 223 29.96 223C27.185 223 20.123 219.359 16.657 216.14C15.093 214.688 12.618 211.25 11.157 208.5L8.5 203.5L8.227 101.75L7.954 0L132 0L256.046 0L255.773 101.75L255.5 203.5L253.14 208C251.842 210.475 249.592 213.779 248.14 215.343C245.103 218.615 237.023 223 234.033 223C232.097 223 232 223.599 232 235.5L232 248L228 248L224 248L224 235.5C224 223.585 223.904 223 221.96 223C219.185 223 212.123 219.359 208.657 216.14C207.093 214.688 204.619 211.25 203.159 208.5C200.52 203.531 200.501 203.335 200.002 176.687L199.5 149.875L195.268 156.317C184.194 173.174 165.102 185.787 145.97 188.886L136.002 190.5L136.001 207.25L136 224L132 224L128 224L127.999 207.25L127.998 190.5L118.03 188.886C98.898 185.787 79.806 173.174 68.732 156.317L64.5 149.875L63.998 176.687C63.499 203.335 63.48 203.531 60.841 208.5C59.381 211.25 56.907 214.688 55.343 216.14C51.877 219.359 44.815 223 42.04 223C40.096 223 40 223.585 40 235.5L40 248L36 248L32 248L32 235.5M43.768 214.452C52.447 210.826 55.946 204.464 55.978 192.25L56 184L36 184L16 184L16 192.032C16 204.06 19.252 210.303 27.5 214.11C32.408 216.375 38.843 216.51 43.768 214.452M235.768 214.452C244.447 210.826 247.946 204.464 247.978 192.25L248 184L228 184L208 184L208 192.032C208 204.06 211.252 210.303 219.5 214.11C224.408 216.375 230.843 216.51 235.768 214.452M149.736 180.404C161.171 177.44 169.8 172.274 179.582 162.539C186.954 155.203 189.453 151.899 192.85 145C197.339 135.885 199.955 125.708 199.983 117.25L200 112L132 112L64 112L64.017 117.25C64.101 142.519 82.659 168.481 107.546 178.144C120.22 183.065 136.172 183.92 149.736 180.404M56 92L56 8L36 8L16 8L16 92L16 176L36 176L56 176L56 92M248 92L248 8L228 8L208 8L208 92L208 176L228 176L248 176L248 92M88 56L88 8L76 8L64 8L64 56L64 104L76 104L88 104L88 56M168 56L168 8L152 8L136 8L136 24L136 40L132 40L128 40L128 24L128 8L112 8L96 8L96 56L96 104L132 104L168 104L168 56M200 56L200 8L188 8L176 8L176 56L176 104L188 104L200 104L200 56" />
    <glyph glyph-name="key-25"
      unicode="&#xEA36;"
      horiz-adv-x="256" d=" M181.01 186.51L126.526 132.019L129.271 129.275L132.015 126.531L156.006 150.505L179.996 174.48L196.002 158.498L212.008 142.515L230.747 161.253L249.485 179.992L233.506 195.994L217.527 211.996L229.467 223.967L241.407 235.938L239.029 238.469C237.721 239.861 236.391 241 236.072 241C235.754 241 210.976 216.479 181.01 186.51M225.505 192.995L238.481 179.99L225.24 166.75L212 153.509L198.76 166.75L185.519 179.99L198.495 192.995C205.632 200.148 211.709 206 212 206C212.291 206 218.368 200.148 225.505 192.995M55 126.44C28.469 120.721 8.035 95.294 8.035 68C8.035 40.451 28.556 15.161 55.5 9.504C75.895 5.223 95.381 11.084 110 25.899C122.551 38.618 127.408 50.366 127.408 68C127.408 85.682 122.537 97.449 109.988 110.083C95.191 124.979 75.457 130.849 55 126.44M82.081 118.167C94.465 114.934 107.013 104.91 114.008 92.663C122.203 78.313 121.755 56.172 112.974 41.554C108.707 34.45 98.47 24.858 91.612 21.536C71.505 11.799 49.099 14.973 32.935 29.847C21.587 40.291 16.176 52.529 16.058 68.022C15.916 86.526 26.02 103.928 42.5 113.563C52.981 119.691 69.072 121.563 82.081 118.167" />
    <glyph glyph-name="layers-3"
      unicode="&#xEA37;"
      horiz-adv-x="256" d=" M72.25 206.263C39.666 187.693 13.007 172.275 13.007 172C13.007 171.115 130.443 104.571 131.999 104.575C133.56 104.578 250.993 171.119 250.993 172C250.993 172.503 135.6 238.449 132.923 239.476C132.123 239.783 105.369 225.138 72.25 206.263M184.001 201.863C212.05 185.837 235 172.399 235 172C235 171.151 133.483 113 132 113C130.198 113 28.929 171.288 29.219 172.158C29.581 173.242 130.08 230.859 131.751 230.94C132.439 230.973 155.952 217.888 184.001 201.863M23.762 130.695C17.856 127.288 13.02 124.275 13.015 124C13.001 123.122 130.436 56.571 132 56.571C133.564 56.571 250.999 123.122 250.985 124C250.975 124.626 228.891 137.256 228.571 136.819C226.855 134.48 225 131.424 225 130.936C225 130.596 227.25 129.093 230 127.597C232.75 126.1 235 124.515 235 124.075C235 123.176 133.567 65 132 65C130.386 65 29 123.19 29 124.117C29 124.58 30.688 125.851 32.75 126.941C39.523 130.52 39.456 130.42 37.408 133.886C36.397 135.599 35.328 136.975 35.034 136.945C34.74 136.915 29.668 134.102 23.762 130.695M23.762 82.695C17.856 79.288 13.02 76.275 13.015 76C13.001 75.122 130.436 8.571 132 8.571C133.564 8.571 250.999 75.122 250.985 76C250.975 76.626 228.891 89.256 228.571 88.819C226.855 86.48 225 83.424 225 82.936C225 82.596 227.25 81.093 230 79.597C232.75 78.1 235 76.515 235 76.075C235 75.176 133.567 17 132 17C130.386 17 29 75.19 29 76.117C29 76.58 30.688 77.851 32.75 78.941C39.523 82.52 39.456 82.42 37.408 85.886C36.397 87.599 35.328 88.975 35.034 88.945C34.74 88.915 29.668 86.102 23.762 82.695" />
    <glyph glyph-name="light-3"
      unicode="&#xEA38;"
      horiz-adv-x="256" d=" M168 236L168 224L172 224L176 224L176 236L176 248L172 248L168 248L168 236M225.002 222.502L214.541 212.005L217.279 209.267L220.017 206.529L230.717 217.228L241.416 227.928L239.034 230.464C237.723 231.859 236.384 233 236.058 233C235.731 233 230.756 228.276 225.002 222.502M113.314 206.75C98.019 191.174 92.417 181.31 89.319 164.5C87.441 154.308 88.171 142.088 91.303 131.274L93.657 123.148L53.307 82.824C27.111 56.645 12.287 41.097 11.047 38.5C0.988 17.435 20.114 -5.001 42.613 1.472C48.409 3.14 49.143 3.806 90 44.44L131.5 85.714L138.949 83.317C153.463 78.647 171.093 79.321 186.649 85.142C195.037 88.28 205.545 95.91 215.988 106.445L225.477 116.016L174.992 166.508C147.225 194.279 124.254 217 123.944 217C123.634 217 118.85 212.388 113.314 206.75M169.488 161.012L214.467 116.025L207.983 109.448C199.494 100.837 190.293 94.783 180.462 91.34C173.412 88.872 171.068 88.549 160 88.526C149.526 88.504 146.365 88.878 140.5 90.833C126.197 95.6 114.896 104.392 106.027 117.651C99.93 126.767 97.035 135.664 96.293 147.561C95.365 162.462 98.784 175.938 106.293 186.977C109.361 191.486 122.812 206 123.923 206C124.245 206 144.749 185.756 169.488 161.012M232 164L232 160L244 160L256 160L256 164L256 168L244 168L232 168L232 164M101.454 110.502C105.777 104.225 116.533 93.81 121.167 91.414L124.293 89.797L96.148 61.652L68.003 33.507L54.757 46.752L41.511 59.998L69.499 87.999C84.892 103.4 97.527 116 97.577 116C97.627 116 99.372 113.526 101.454 110.502M49.496 41.004L62.463 28.008L53.997 19.497C44.428 9.878 39.749 7.43 32.493 8.248C20.174 9.636 12.772 22.277 17.541 33.782C18.854 36.947 34.416 54 35.992 54C36.287 54 42.364 48.152 49.496 41.004" />
    <glyph glyph-name="lock-circle-open"
      unicode="&#xEA39;"
      horiz-adv-x="256" d=" M124.5 247.418C123.4 247.152 120.475 246.435 118 245.825C105.885 242.836 92.419 232.013 86.202 220.27C80.935 210.32 80.037 203.794 80.017 175.307L80 150.113L74.365 144.807C43.934 116.151 39.714 69.182 64.456 34.51C81.243 10.985 112.237 -2.549 141.25 0.976C177.151 5.339 203.902 29.015 213.588 65C215.734 72.972 216.051 92.991 214.158 101C212.541 107.844 207.673 120.548 204.494 126.221C198.031 137.754 184.338 150.948 172.234 157.306C157.895 164.838 147.451 167.479 132 167.479C117.36 167.479 106.794 164.983 94.012 158.506C91.292 157.128 88.827 156 88.533 156C88.24 156 88 166.255 88 178.79C88 203.489 88.745 208.736 93.439 217.12C97.594 224.542 105.613 231.863 114 235.895C121.146 239.33 121.995 239.5 132 239.5C142.005 239.5 142.854 239.33 150 235.895C158.35 231.881 166.409 224.542 170.497 217.226C173.189 212.411 176 202.898 176 198.606C176 196.232 176.357 196 180 196C184.692 196 184.809 196.52 182.531 207.27C178.865 224.57 165.329 239.493 148.097 245.235C142.612 247.062 128.454 248.372 124.5 247.418M154.631 156.788C174.96 150.74 193.98 133.369 202.473 113.095C209.784 95.642 209.719 72.152 202.312 54.554C192.715 31.752 171.172 14.128 147.162 9.434C105.876 1.364 65.993 27.535 57.592 68.21C52.116 94.718 60.301 120.778 79.913 139.279C95.839 154.303 111.965 160.303 134.5 159.588C143.427 159.305 148.582 158.588 154.631 156.788M123.205 126.165C115.873 123.55 111.024 119.323 107.5 112.472C99.73 97.37 107.804 77.987 123.627 73.755L128 72.585L128 60.293L128 48L132 48L136 48L136 60.293L136 72.585L140.373 73.755C153.958 77.388 162.65 93.371 158.606 107.282C154.13 122.682 137.824 131.38 123.205 126.165M139.768 118.452C144.71 116.388 147.876 113.341 150.11 108.5C154.884 98.155 150.182 85.899 139.768 81.548C132.755 78.618 123.689 80.189 118.132 85.298C110.538 92.279 110.135 106.077 117.298 113.868C122.456 119.479 132.437 121.516 139.768 118.452" />
    <glyph glyph-name="map-big"
      unicode="&#xEA3A;"
      horiz-adv-x="256" d=" M41.601 223.276L8 206.552L8 106.276C8 51.124 8.3 6 8.667 6C9.033 6 23.882 13.425 41.664 22.5C59.446 31.575 74.659 39 75.469 39C76.28 39 89.205 32.025 104.192 23.5C119.179 14.975 131.693 8 132 8C132.307 8 144.821 14.975 159.808 23.5C174.795 32.025 187.706 39 188.5 39C189.293 39 204.506 31.575 222.306 22.5C240.105 13.425 254.968 6 255.334 6C255.7 6 256 51.126 256 106.28L256 206.56L222.25 223.31C203.688 232.522 188.211 240.046 187.859 240.029C187.506 240.013 175.027 233.025 160.128 224.5C145.229 215.975 132.571 209 132 209C131.429 209 118.771 215.975 103.872 224.5C88.973 233.025 76.427 240 75.993 240C75.558 240 60.082 232.474 41.601 223.276M72 138.126L72 46.253L44 32.071L16 17.889L16 109.941L16 201.993L43.75 215.942C59.013 223.615 71.612 229.916 71.75 229.946C71.888 229.976 72 188.657 72 138.126M248 109.963L248 17.934L220 32.035L192 46.137L192 138.072L192 230.007L220 216L248 201.993L248 109.963M105.5 214.753C117.05 208.19 126.84 202.498 127.255 202.105C127.671 201.711 127.896 160.356 127.755 110.203L127.5 19.017L103.75 32.577L80 46.137L80 137.604L80 229.07L82.25 227.878C83.487 227.222 93.95 221.316 105.5 214.753M184 137.578L184 46.157L162.25 33.729C150.287 26.894 139.485 20.767 138.245 20.113L135.99 18.924L136.245 110.569L136.5 202.215L160 215.598C172.925 222.958 183.613 228.985 183.75 228.99C183.887 228.996 184 187.86 184 137.578" />
    <glyph glyph-name="mobile"
      unicode="&#xEA3C;"
      horiz-adv-x="256" d=" M58.899 245.216C54.584 242.962 53.038 241.416 50.784 237.101L48 231.772L48 124.082L48 16.393L50.533 11.309C52.116 8.133 54.616 5.152 57.198 3.363L61.329 0.5L132 0.5L202.671 0.5L206.659 3.264C208.853 4.784 211.739 7.934 213.074 10.264L215.5 14.5L215.767 123.103L216.035 231.705L213.233 237.068C210.96 241.419 209.425 242.957 205.101 245.216L199.772 248L132 248L64.228 248L58.899 245.216M202.433 238.054C204.045 236.99 205.942 235.081 206.647 233.81C207.667 231.973 207.936 209.539 207.965 124.154C207.997 26.537 207.852 16.558 206.364 14.04C202.642 7.738 205.87 7.999 131.846 8.007C66.96 8.013 64.393 8.084 61.567 9.946C59.955 11.01 58.058 12.919 57.353 14.19C55.47 17.583 55.47 230.417 57.353 233.81C58.058 235.081 59.955 236.99 61.567 238.054C64.393 239.916 66.956 239.987 132 239.987C197.044 239.987 199.607 239.916 202.433 238.054M124.5 70.104C117.27 66.757 111.974 58.98 112.022 51.782C112.087 42.113 122.3 32 132 32C141.817 32 151.956 42.162 151.956 52C151.956 59.312 146.224 67.338 138.782 70.447C133.9 72.486 129.413 72.379 124.5 70.104M137.96 62.364C145.888 57.682 145.888 46.318 137.96 41.636C130.141 37.017 119.939 43.004 120.035 52.154C120.132 61.242 130.176 66.963 137.96 62.364" />
    <glyph glyph-name="money-coins"
      unicode="&#xEA3B;"
      horiz-adv-x="256" d=" M8 156L8 64L68 64L128 64L128 68L128 72L72 72L16 72L16 156L16 240L132 240L248 240L248 184L248 128L252 128L256 128L256 188L256 248L132 248L8 248L8 156M71.77 209.721C70.624 195.444 60.556 185.376 46.279 184.23L40 183.726L40 156L40 128.274L46.279 127.77C60.556 126.624 70.624 116.556 71.77 102.279L72.274 96L100.137 96L128 96L128 100L128 104L103.628 104L79.256 104L78.601 108.092C76.636 120.381 64.377 132.637 52.083 134.603L48 135.256L48 156.128C48 176.2 48.075 177 49.962 177C51.042 177 54.507 177.966 57.662 179.146C67.901 182.977 76.97 193.705 78.603 203.917L79.256 208L132.128 208L185 208L185.001 205.25C185.002 200.562 190.366 190.818 195.654 185.896C200.415 181.466 209.644 177 214.038 177C215.908 177 216 176.228 216 160.5L216 144L220 144L224 144L224 163.863L224 183.726L217.721 184.23C203.444 185.376 193.376 195.444 192.23 209.721L191.726 216L132 216L72.274 216L71.77 209.721M123.205 182.165C115.987 179.591 111.026 175.335 107.745 168.902C104.054 161.666 103.36 155.712 105.394 148.718C109.721 133.833 124.858 125.201 139.282 129.394C154.167 133.721 162.799 148.858 158.606 163.282C154.13 178.682 137.824 187.38 123.205 182.165M139.768 174.452C144.71 172.388 147.876 169.341 150.11 164.5C153.577 156.988 151.686 146.646 145.868 141.298C138.364 134.399 125.636 134.399 118.132 141.298C110.538 148.279 110.135 162.077 117.298 169.868C122.456 175.479 132.437 177.516 139.768 174.452M191.388 119.017C171.824 116.247 155.803 107.154 153.055 97.26C151.657 92.224 151.657 27.776 153.055 22.74C155.384 14.353 168.465 5.792 184.343 2.263C193.843 0.151 214.157 0.151 223.657 2.263C239.287 5.737 252.646 14.461 254.929 22.685C256.355 27.817 256.355 92.183 254.929 97.315C252.712 105.3 239.797 113.952 224.832 117.476C216.877 119.35 199.423 120.154 191.388 119.017M225.437 109.471C256.426 100.958 254.972 81.717 222.756 73.993C193.361 66.946 156.511 78.963 160.37 94.338C162.242 101.797 174.824 108.674 191.5 111.352C197.487 112.314 219.538 111.091 225.437 109.471M246.935 55.842C242.073 44.104 210.476 36.562 186.923 41.516C174.839 44.058 164.227 49.727 161.43 55.135C159.929 58.037 159.321 76.516 160.75 75.781C176.179 67.857 184.052 65.521 199 64.434C214.454 63.31 237.266 68.527 245.259 75.012L247.5 76.831L247.79 67.719C247.958 62.451 247.597 57.441 246.935 55.842M246.935 23.842C242.073 12.104 210.476 4.562 186.923 9.516C174.839 12.058 164.227 17.727 161.43 23.135C159.929 26.037 159.321 44.516 160.75 43.781C176.179 35.857 184.052 33.521 199 32.434C214.454 31.31 237.266 36.527 245.259 43.012L247.5 44.831L247.79 35.719C247.958 30.451 247.597 25.441 246.935 23.842" />
    <glyph glyph-name="note-03"
      unicode="&#xEA3D;"
      horiz-adv-x="256" d=" M80 156.037L80 72.075L75.25 76.701C60.019 91.536 35.295 91.2 20.048 75.952C4.462 60.367 4.462 35.633 20.048 20.048C42.627 -2.531 81.019 9.462 86.992 40.96C87.604 44.186 88 71.748 88 111.136L88 176L164 176L240 176L240 136.037L240 96.075L235.25 100.701C220.019 115.536 195.295 115.2 180.048 99.952C164.462 84.367 164.462 59.633 180.048 44.048C202.627 21.469 241.019 33.462 246.992 64.96C247.62 68.267 248 102.313 248 155.136L248 240L164 240L80 240L80 156.037M240 208L240 184L164 184L88 184L88 208L88 232L164 232L240 232L240 208M219.543 101.898C227.138 99.056 235.056 91.138 237.898 83.543C242.446 71.387 239.685 58.729 230.478 49.522C217.633 36.676 198.367 36.676 185.522 49.522C172.675 62.369 172.676 81.633 185.525 94.482C194.731 103.687 207.386 106.446 219.543 101.898M59.543 77.898C67.138 75.056 75.056 67.138 77.898 59.543C85.766 38.515 70.306 16 48 16C30.486 16 16 30.486 16 48C16 56.733 19.105 64.061 25.525 70.482C34.731 79.687 47.386 82.446 59.543 77.898" />
    <glyph glyph-name="notes"
      unicode="&#xEA3E;"
      horiz-adv-x="256" d=" M123.372 246.222C120.552 245.214 117.055 243.611 115.602 242.659C111.829 240.186 107.051 233.22 105.723 228.254L104.585 224L92.293 224L80 224L80 204L80 184L132 184L184 184L184 204L184 224L171.707 224L159.415 224L158.245 228.373C154.484 242.437 137.339 251.212 123.372 246.222M139.768 238.452C147.181 235.355 151.937 228.265 151.978 220.25L152 216L164 216L176 216L176 204L176 192L132 192L88 192L88 204L88 216L100 216L112 216L112 220.032C112 224.76 114.195 230.494 117.298 233.868C122.456 239.479 132.437 241.516 139.768 238.452M32 108L32 0L132 0L232 0L232 108L232 216L220 216L208 216L208 212L208 208L216 208L224 208L224 108L224 8L132 8L40 8L40 108L40 208L48 208L56 208L56 212L56 216L44 216L32 216L32 108M80 140L80 136L132 136L184 136L184 140L184 144L132 144L80 144L80 140M80 100L80 96L132 96L184 96L184 100L184 104L132 104L80 104L80 100M80 60L80 56L104 56L128 56L128 60L128 64L104 64L80 64L80 60" />
    <glyph glyph-name="notification-70"
      unicode="&#xEA3F;"
      horiz-adv-x="256" d=" M194.5 246.559C170.463 241.803 148.424 226.969 133.87 205.75L129.925 200L82.329 200C48.373 200 33.592 199.658 30.753 198.808C22.585 196.361 14.204 184.43 10.27 169.649C8.068 161.373 8.068 142.627 10.27 134.351C14.204 119.57 22.585 107.639 30.753 105.192C32.941 104.537 38.337 104 42.744 104L50.756 104L77.492 59.013C95.472 28.76 105.482 12.894 108.055 10.569C111.714 7.264 119.884 4 124.5 4C129.183 4 136.734 7.172 141.187 11.009C147.377 16.343 150.421 23.96 149.69 32.29C149.224 37.611 147.665 40.689 130.452 70.29C120.149 88.005 111.532 102.838 111.301 103.25C111.071 103.662 115.167 104 120.404 104L129.925 104L133.87 98.25C146.99 79.121 168.462 63.755 189.5 58.438C199.737 55.851 213.216 55.964 219.176 58.686C235.16 65.988 248.134 90.016 253.632 122.5C255.704 134.741 255.998 166.69 254.147 178.5C248.871 212.171 235.357 238.089 219.394 245.15C213.598 247.714 203.285 248.298 194.5 246.559M216.683 237.911C228.789 232.051 240.337 210.415 245.498 183.926C247.798 172.116 248.575 145.88 247.039 131.878C243.477 99.411 230.249 71.598 215.422 65.403C201.734 59.684 187.203 71.093 177.727 95C173.789 104.936 173.424 107 175.608 107C178.821 107 186.329 110.261 192.263 114.234C197.93 118.028 204.637 125.463 207.652 131.294C212.01 139.722 213.523 154.632 210.978 164.083C206.885 179.283 194.627 192.403 179.815 197.438L174.224 199.338L176.133 204.888C180.045 216.258 185.283 225.362 191.546 231.679C199.962 240.166 207.939 242.144 216.683 237.911M181.446 232.25C180.465 230.738 178.603 227.888 177.309 225.918C171.368 216.872 165.308 198.862 162.365 181.5C160.009 167.601 159.999 136.194 162.346 122.5C165.625 103.373 171.77 86.138 179.263 75.055C181.287 72.061 182.752 69.419 182.518 69.185C182.284 68.951 178.809 70.424 174.796 72.458C160.137 79.888 147.181 91.634 138.075 105.75L134.044 112L103.987 112C69.904 112 70.632 111.845 66.526 119.948C61.603 129.664 60.52 135.441 60.52 152C60.52 164.186 60.912 168.776 62.352 173.47C64.741 181.256 67.556 186.684 70.731 189.626L73.292 192L103.658 192L134.025 192L137.568 197.539C146.404 211.351 160.222 224.099 174.323 231.445C182.528 235.721 183.79 235.863 181.446 232.25M60.205 188.75C50.169 172.093 49.547 136.601 58.961 117.762L61.84 112L47.643 112C29.701 112 28.195 112.825 21.528 126.301C14.048 141.422 14.267 163.842 22.045 179.088C28.212 191.176 29.681 191.909 47.832 191.96L62.163 192L60.205 188.75M181.812 188.318C192.571 183.245 201.609 171.464 204.119 159.242C207.427 143.13 198.619 125.368 183.673 118.01C180.237 116.319 176.107 114.837 174.496 114.717C171.66 114.507 171.523 114.707 170.184 121C168.309 129.814 168.057 172.01 169.825 181C172.127 192.702 172.296 192.805 181.812 188.318M121.752 70C137.752 42.55 141.365 35.652 141.761 31.804C142.382 25.766 141.62 22.89 138.375 19.033C132.625 12.2 124.134 10.305 116.287 14.103C112.144 16.108 110.865 18.017 88.627 55.353C75.804 76.884 64.068 96.647 62.549 99.27L59.786 104.04L81.006 103.77L102.226 103.5L121.752 70" />
    <glyph glyph-name="palette"
      unicode="&#xEA40;"
      horiz-adv-x="256" d=" M74.305 239.632C67.835 237.987 60.196 233.405 50.814 225.541C21.644 201.091 5.14 160.14 8.849 121.41C13.125 76.758 38.109 40.128 78 20.026C95.864 11.024 112.85 7 132.979 7C167.365 7 195.747 18.829 220.556 43.5C239.057 61.898 250.224 83.095 254.589 108.099C256.689 120.125 256.036 139.138 253.147 150.136C245.384 179.679 221.69 197.096 189.16 197.173C176.839 197.203 167.337 195.414 143.122 188.509C122.114 182.519 114.587 181.678 108.367 184.63C101.278 187.994 100.627 191.69 104.5 206.597C105.875 211.889 107 217.984 107 220.142C107 224.783 104.771 230.544 101.702 233.834C96.184 239.75 84.497 242.223 74.305 239.632M91.364 231.621C99.502 228.221 100.646 222.357 96.422 205.693C92.476 190.126 94.502 183.185 104.485 178.059C108.812 175.838 110.66 175.513 118.485 175.601C125.846 175.684 129.793 176.395 140 179.477C166.977 187.621 174.605 189.202 187.5 189.319C206.78 189.494 220.203 184.708 231.423 173.658C243.006 162.252 248.101 147.231 248.07 124.582C248.009 79.284 215.77 36.405 169.796 20.474C145.872 12.183 116.5 12.764 92.296 22.007C16.886 50.803 -8.178 143.453 42.54 205.932C50.743 216.038 66.612 229.017 73.994 231.658C78.69 233.338 87.299 233.32 91.364 231.621M179.205 166.165C171.987 163.591 167.026 159.335 163.745 152.902C160.054 145.666 159.36 139.712 161.394 132.718C165.721 117.833 180.858 109.201 195.282 113.394C210.167 117.721 218.799 132.858 214.606 147.282C210.13 162.682 193.824 171.38 179.205 166.165M52.5 158.104C45.27 154.757 39.974 146.98 40.022 139.782C40.087 130.113 50.3 120 60 120C69.817 120 79.956 130.162 79.956 140C79.956 147.312 74.224 155.338 66.782 158.447C61.9 160.486 57.413 160.379 52.5 158.104M195.768 158.452C200.71 156.388 203.876 153.341 206.11 148.5C210.884 138.155 206.182 125.899 195.768 121.548C188.755 118.618 179.689 120.189 174.132 125.298C166.538 132.279 166.135 146.077 173.298 153.868C178.456 159.479 188.437 161.516 195.768 158.452M65.96 150.364C73.888 145.682 73.888 134.318 65.96 129.636C58.141 125.017 47.939 131.004 48.035 140.154C48.132 149.242 58.176 154.963 65.96 150.364M68.5 102.104C61.27 98.757 55.974 90.98 56.022 83.782C56.087 74.113 66.3 64 76 64C85.817 64 95.956 74.162 95.956 84C95.956 91.312 90.224 99.338 82.782 102.447C77.9 104.486 73.413 104.379 68.5 102.104M81.96 94.364C89.888 89.682 89.888 78.318 81.96 73.636C74.141 69.017 63.939 75.004 64.035 84.154C64.132 93.242 74.176 98.963 81.96 94.364M124.5 78.104C117.27 74.757 111.974 66.98 112.022 59.782C112.087 50.113 122.3 40 132 40C141.817 40 151.956 50.162 151.956 60C151.956 67.312 146.224 75.338 138.782 78.447C133.9 80.486 129.413 80.379 124.5 78.104M137.96 70.364C145.888 65.682 145.888 54.318 137.96 49.636C130.141 45.017 119.939 51.004 120.035 60.154C120.132 69.242 130.176 74.963 137.96 70.364" />
    <glyph glyph-name="paper-2"
      unicode="&#xEA41;"
      horiz-adv-x="256" d=" M56 180L56 112L31.953 112L7.906 112L8.203 66.25C8.5 20.537 8.502 20.496 10.835 16C14.124 9.664 19.615 4.316 24.945 2.258C29.185 0.621 36.613 0.5 132.5 0.5C226.154 0.5 235.83 0.65 239.14 2.153C244.475 4.576 250.222 10.168 253.033 15.67L255.5 20.5L255.771 134.25L256.041 248L156.021 248L56 248L56 180M247.978 131.75C247.957 28.645 247.868 23.31 246.11 19.5C243.876 14.659 240.71 11.612 235.768 9.548C232.52 8.191 221.23 8 144.066 8L56.068 8L58.991 12.331C60.599 14.714 62.372 18.651 62.933 21.081C63.589 23.93 63.96 63.602 63.976 132.75L64 240L156 240L248 240L247.978 131.75M96 184L96 160L124 160L152 160L152 184L152 208L124 208L96 208L96 184M176 204L176 200L196 200L216 200L216 204L216 208L196 208L176 208L176 204M144 184L144 168L124 168L104 168L104 184L104 200L124 200L144 200L144 184M176 164L176 160L196 160L216 160L216 164L216 168L196 168L176 168L176 164M96 124L96 120L156 120L216 120L216 124L216 128L156 128L96 128L96 124M55.978 63.75C55.958 26.757 55.807 23.176 54.11 19.5C47.031 4.162 24.969 4.162 17.89 19.5C16.193 23.176 16.042 26.757 16.022 63.75L16 104L36 104L56 104L55.978 63.75M96 84L96 80L116 80L136 80L136 84L136 88L116 88L96 88L96 84M160 64L160 40L188 40L216 40L216 64L216 88L188 88L160 88L160 64M208 64L208 48L188 48L168 48L168 64L168 80L188 80L208 80L208 64M96 44L96 40L116 40L136 40L136 44L136 48L116 48L96 48L96 44" />
    <glyph glyph-name="pin-3"
      unicode="&#xEA42;"
      horiz-adv-x="256" d=" M120.448 246.917C106.944 245.339 91.166 239.229 78.5 230.673C60.254 218.348 46.876 198.54 42.549 177.444C37.775 154.168 40.898 135.356 53.759 109.917C67.7 82.341 94.819 45.658 123.93 15L132.002 6.5L139.589 14.5C161.391 37.488 186.814 70.163 200.894 93.29C207.739 104.534 215.731 121.082 218.896 130.564C226.66 153.822 224.82 176.847 213.427 199C199.992 225.121 172.739 243.488 142.223 246.984C132.482 248.1 130.527 248.094 120.448 246.917M147.792 238.412C174.863 232.834 197.037 215.944 208.068 192.5C213.142 181.717 214.943 174.482 215.659 162C216.385 149.354 214.731 140.08 209.346 126.604C198.769 100.13 169.252 57.753 137.534 23.5L131.978 17.5L125.901 24C95.215 56.823 65.235 99.651 55.022 125.255C49.285 139.64 47.706 148.07 48.33 161C49.362 182.378 56.457 199.207 70.5 213.581C84.917 228.337 96.402 234.256 120.5 239.346C125.419 240.385 140.767 239.859 147.792 238.412M123.205 182.165C115.987 179.591 111.026 175.335 107.745 168.902C104.054 161.666 103.36 155.712 105.394 148.718C109.721 133.833 124.858 125.201 139.282 129.394C154.167 133.721 162.799 148.858 158.606 163.282C154.13 178.682 137.824 187.38 123.205 182.165M139.768 174.452C144.71 172.388 147.876 169.341 150.11 164.5C153.577 156.988 151.686 146.646 145.868 141.298C138.364 134.399 125.636 134.399 118.132 141.298C110.538 148.279 110.135 162.077 117.298 169.868C122.456 175.479 132.437 177.516 139.768 174.452" />
    </font>
</defs>
</svg>
